Teletubbies (110) | How To How to access weird computer file formatsRead more | Melodrama

Дон Кихот моего детства (Сатыбалды Нарымбетов) [1978, Притча, трагикомедия, экранизация, SATRip] 

Цитировать
Дон Кихот моего детства
Выпущено: СССР, Киностудия "Казахфильм"
Жанр: Притча, трагикомедия, экранизация
Год выпуска: 1978
Продолжительность: 01:08:21
Режиссёр: Сатыбалды Нарымбетов
В ролях: Кубатбек Жусубалиев, Гульзия Бельбаева, Байкенже Бельбаев, Кудайберген Султанбаев, Нуржуман Ихтымбаев, Димаш Ахимов, Жанна Керимтаева, Кульшара Айнагулова, Толеген Оспанов, Ришат Тлеубаев, Сапар Еркебаев
Описание: Притча о молодом человеке, который живет в своем воображаемом мире и попадает в разные смешные ситуации.
По мотивам рассказа Есенжола Домбаева «Чудак в шляпе». Притча о молодом человеке, который живет в своем воображаемом мире и попадает в разные смешные ситуации. Герой, будучи натурой поэтической, или, как его называли в ауле - "без царя в голове", не в силах защищать себя. Вторым главным героем, стал старый, разбитый грузовик «Урал-ЗИС-5», или, как его в свое время называли в народе, «Захар». Эта машина досталась герою от отца, и он постоянно валяется под «Захаром», который упорно отказывается заводиться. Словом, машина, где в кузове стоит конь-производитель, которого нужно отвезти на племзавод, застряла во дворе у героя. Еще один персонаж «Дон Кихота» - мать бедолаги-шофера. В какой-то момент она говорит сыну: «Что за напасть? Это не машина, а беда. Она доставала сначала твоего отца и меня, а теперь и тебя»... Машина-власть перемалывает всех, кто соприкасается с ней.
Доп. информация: Кубатбек Жусубалиев. Интересный и неординарный кыргызский актер. Единственная его главная роль и единственная роль вообще в игровом кино.
В фильме звучат песни на стихи Владимира Харитонова и музыка в исполнении ВИА «Фантазия» под руководством Виктора Акопова. Дирижёр: Андрей Геворгян.
Рип by Lem . Cпасибо за исходник Злобин Глеб.
Исходник http://rutracker.org/forum/viewtopic.php?t=5440596
Спасибо за постер Barents (Арт-студия)

Семпл: http://yadi.sk/i/fqePTYLS3MBMxy
Качество видео: SATRip
Формат видео: AVI
Видео: XviD, 2101 Кбит/с, 704x512, 25 fps
Аудио: Русский - AC3, 192 Кбит/с, 2 channels (L R), 48.0 kHz

MediaInfo

General
Complete name : Дон Кихот моего детства 1977, драма, комедия TVRip.Lem.avi
Format : AVI
Format/Info : Audio Video Interleave
File size : 1.10 GiB
Duration : 1 h 8 min
Overall bit rate : 2 303 kb/s
Writing application : VirtualDubMod 1.5.10.3 | www.virtualdub-fr.org || (build 2550/release)
Writing library : VirtualDubMod build 2550/release
Video
ID : 0
Format : MPEG-4 Visual
Format profile : Advanced Simple@L5
Format settings, BVOP : 1
Format settings, QPel : No
Format settings, GMC : No warppoints
Format settings, Matrix : Custom
Codec ID : XVID
Codec ID/Hint : XviD
Duration : 1 h 8 min
Bit rate : 2 101 kb/s
Width : 704 pixels
Height : 512 pixels
Display aspect ratio : 1.375
Frame rate : 25.000 FPS
Color space : YUV
Chroma subsampling : 4:2:0
Bit depth : 8 bits
Scan type : Progressive
Compression mode : Lossy
Bits/(Pixel*Frame) : 0.233
Stream size : 1.00 GiB (91%)
Writing library : XviD 73
Audio
ID : 1
Format : AC-3
Format/Info : Audio Coding 3
Format settings, Endianness : Big
Codec ID : 2000
Duration : 1 h 8 min
Bit rate mode : Constant
Bit rate : 192 kb/s
Channel(s) : 2 channels
Channel positions : Front: L R
Sampling rate : 48.0 kHz
Frame rate : 31.250 FPS (1536 SPF)
Bit depth : 16 bits
Compression mode : Lossy
Stream size : 93.9 MiB (8%)
Alignment : Split accross interleaves
Interleave, duration : 40 ms (1.00 video frame)
Interleave, preload duratio : 500 ms
Service kind : Complete Main

Скриншоты

Ссылки на мои файлы http://rutracker.org/forum/search.php?uid=18026582&myt=1
Вы не можете начинать темы
Вы не можете отвечать на сообщения
Вы не можете редактировать свои сообщения
Вы не можете удалять свои сообщения
Вы не можете голосовать в опросах
Вы не можете прикреплять файлы к сообщениям
Вы можете скачивать файлы
!ВНИМАНИЕ!

Сайт не предоставляет электронные версии произведений, а занимается лишь коллекционированием и каталогизацией ссылок, присылаемых и публикуемых на форуме нашими читателями. Если вы являетесь правообладателем какого-либо представленного материала и не желаете, чтобы ссылка на него находилась в нашем каталоге, свяжитесь с нами, и мы незамедлительно удалим ее. Файлы для обмена на трекере предоставлены пользователями сайта, и администрация не несет ответственности за их содержание. Просьба не заливать файлы, защищенные авторскими правами, а также файлы нелегального содержания!

Искали программы, игры, дополнения, музыка mp3, аниме, аудио книги, журналы? Добро пожаловать на свободный торрент трекер Torrents, у нас можно скачать бесплатно, без смс и регистрации и прочих ограничений лучшие, отборные сборки программ, игр. Скачать торрентом не составит труда даже не опытному пользователю. Раздачи ежедневно обновляются, только лучшие и качественные раздачи, подробные описания и скриншоты. Огромная коллекция программ для работы со звуком, графикой, дизайном, а так же множество плагинов и инструментов к ним с подробной инструкцией и рекомендациями. Прошивки для навигаторов, карты. Разнообразные игры, для Windows, Linux. В коллекцие есть и старые игры любых жанров, Rpg, Action, Shooter, strategy Множество дополнений, модификаций, сценариев для популярных игр в жанре экш, рпг, гонки, стратегии, логические игры. Множество аддонов и сценариев для Microsoft Flight Simulator Большая коллекция книг, учебников. Если нет возможности купить печатное издание - смело скачивайте цифровую версию книги или, быть может, журнала. Не любите читать - можно загрузить бесплатно аудикнигу. Для веб дизайнеров и программистов так же найдется множество специализированного софта, таких как: редакторы с подсветкой, среды программирования, компоненты, системы управления базами данных, разнообразные скрипты и шаблоны. Не так давно у нас появился материал для автолюбителей и владельцев мото - оригинальные и неоригинальные каталоги запчастей, книги и журналы по ремонту и обслуживанию, видеоуроки, статьи по чип тюнингу, прошивкам. Процедура получения контента элементарная, достаточно просто скачать торрент файл и добавить его в загрузку в вашем торрент клиенте. Если у вас нет специального торрент клиента, вы можете его скачать у нас.