Thám Tử Lừng Danh Conan chap 864 | The Catcher Was a Spy | Shadowhunters

Клад черных гор (Нурмухан Жантурин, Цой Гук Ин) [1978, драма, SATRip] 

Цитировать
Клад черных гор Жанр: драма
Студия: Казахфильм
Продолжительность: 01:09:54
Год выпуска: 1978-Режиссёры: Нурмухан Жантурин, Цой Гук Ин
В ролях: Джамбул Худайбергенов, Хамар Адамбаева, Игорь Боголюбов, Нурмухан Жантурин, Нуржуман Ихтымбаев, Герман Колушкин, Николай Кузьмин, Рауза Тажибаева, Амина Умурзакова, Раиса Мухамедьярова...-Описание: События фильма разворачиваются на недавно открытом руднике Нартас, входящем в крупный горнорудный комбинат. В силу многих причин рудник недопоставляет железную руду. Выход из создавшегося положения, предлагает молодой начальник рудника Нариман Данаев. Он встречает и поддержку, и сопротивление. Таким образом, за производственными проблемами встают борьба характеров, взглядов, разного отношения к делу. Конфликт переходит в нравственную сферу. Сложная ситуация складывается и в личной жизни главного героя. До знакомства с Марзией ему казалось, что он любит красивую, броскую Раушан. Однако встреча со сдержанной, немногословной Марзией, ушедшей от пьяницы-мужа и оставшейся с грудным ребенком на руках, заставляет Наримана понять, что к нему пришла настоящая любовь...-
Семпл: http://sendfile.su/1356764-Качество: SATRip [Ел Арна]
Формат: AVI
Видео: XviD 67, 624x224, 25 fps, ~2166 kbps, 0.620 bit/pixel
Аудио: [RUS] AC3, 48 kHz, 2 ch, 192 kbps

Mediainfo

Общее
Полное имя : F:\Клад черных гор (1979).avi
Формат : AVI
Формат/Информация : Audio Video Interleave
Размер файла : 1,16 Гбайт
Продолжительность : 1 ч. 9 м.
Общий поток : 2368 Кбит/сек
Программа кодирования : VirtualDubMod 1.5.10.2 (build 2540/release)
Библиотека кодирования : VirtualDubMod build 2540/release
Видео
Идентификатор : 0
Формат : MPEG-4 Visual
Профиль формата : Advanced Simple@L5
Параметр BVOP формата : 2
Параметр QPel формата : Нет
Параметр GMC формата : Без точки перехода
Параметр матрицы формата : Default (H.263)
Идентификатор кодека : XVID
Идентификатор кодека/Подсказка : XviD
Продолжительность : 1 ч. 9 м.
Битрейт : 2166 Кбит/сек
Ширина : 624 пикселя
Высота : 224 пикселя
Соотношение сторон : 2,786
Частота кадров : 25,000 кадров/сек
Цветовое пространство : YUV
Субдискретизация насыщенности : 4:2:0
Битовая глубина : 8 бит
Тип развёртки : Прогрессивная
Метод сжатия : С потерями
Бит/(Пиксели*Кадры) : 0.620
Размер потока : 1,06 Гбайт (91%)
Библиотека кодирования : XviD 67
Аудио
Идентификатор : 1
Формат : AC-3
Формат/Информация : Audio Coding 3
Параметр Endianness формата : Big
Идентификатор кодека : 2000
Продолжительность : 1 ч. 9 м.
Вид битрейта : Постоянный
Битрейт : 192 Кбит/сек
Каналы : 2 канала
Расположение каналов : Front: L R
Частота : 48,0 КГц
Частота кадров : 31,250 кадров/сек (1536 spf)
Битовая глубина : 16 бит
Метод сжатия : С потерями
Размер потока : 96,0 Мбайт (8%)
Выравнивание : Разделение по промежуткам
Продолжительность промежутка : 40 мс. (1,00 видеокадр)
Время предзагрузки промежутка : 500 мс.
ServiceKind/String : Complete Main

Скриншоты

Вы не можете начинать темы
Вы не можете отвечать на сообщения
Вы не можете редактировать свои сообщения
Вы не можете удалять свои сообщения
Вы не можете голосовать в опросах
Вы не можете прикреплять файлы к сообщениям
Вы можете скачивать файлы
!ВНИМАНИЕ!

Сайт не предоставляет электронные версии произведений, а занимается лишь коллекционированием и каталогизацией ссылок, присылаемых и публикуемых на форуме нашими читателями. Если вы являетесь правообладателем какого-либо представленного материала и не желаете, чтобы ссылка на него находилась в нашем каталоге, свяжитесь с нами, и мы незамедлительно удалим ее. Файлы для обмена на трекере предоставлены пользователями сайта, и администрация не несет ответственности за их содержание. Просьба не заливать файлы, защищенные авторскими правами, а также файлы нелегального содержания!

Искали программы, игры, дополнения, музыка mp3, аниме, аудио книги, журналы? Добро пожаловать на свободный торрент трекер Torrents, у нас можно скачать бесплатно, без смс и регистрации и прочих ограничений лучшие, отборные сборки программ, игр. Скачать торрентом не составит труда даже не опытному пользователю. Раздачи ежедневно обновляются, только лучшие и качественные раздачи, подробные описания и скриншоты. Огромная коллекция программ для работы со звуком, графикой, дизайном, а так же множество плагинов и инструментов к ним с подробной инструкцией и рекомендациями. Прошивки для навигаторов, карты. Разнообразные игры, для Windows, Linux. В коллекцие есть и старые игры любых жанров, Rpg, Action, Shooter, strategy Множество дополнений, модификаций, сценариев для популярных игр в жанре экш, рпг, гонки, стратегии, логические игры. Множество аддонов и сценариев для Microsoft Flight Simulator Большая коллекция книг, учебников. Если нет возможности купить печатное издание - смело скачивайте цифровую версию книги или, быть может, журнала. Не любите читать - можно загрузить бесплатно аудикнигу. Для веб дизайнеров и программистов так же найдется множество специализированного софта, таких как: редакторы с подсветкой, среды программирования, компоненты, системы управления базами данных, разнообразные скрипты и шаблоны. Не так давно у нас появился материал для автолюбителей и владельцев мото - оригинальные и неоригинальные каталоги запчастей, книги и журналы по ремонту и обслуживанию, видеоуроки, статьи по чип тюнингу, прошивкам. Процедура получения контента элементарная, достаточно просто скачать торрент файл и добавить его в загрузку в вашем торрент клиенте. Если у вас нет специального торрент клиента, вы можете его скачать у нас.