Huck (0) | Peter Knight | Ego Mikitas

Здравствуй, река! (Павел Арсенов, Юрий Григорьев, Игорь Ясулович) [1978, СССР, детский, Screener] 

Цитировать
Здравствуй, река!- Страна: СССР
Студия: Киностудия им. Горького
Жанр: детский
Год выпуска: 1978
Продолжительность: 01:01:38-Режиссеры: Павел Арсенов, Юрий Григорьев, Игорь Ясулович
В ролях: Костя Жалтов, Татьяна Пельтцер, Валентина Теличкина, Саша Торопов, Катя Сычева, Алеша Запруднов, Аня Турчан...-Описание: Маленький мальчик Стёпка очень любил слушать перед сном сказки, которые сочиняла его мама. И вот однажды она рассказала ему о реке, возле которой они жили. Это была большая и могучая река, но она нуждалась в защите и заботе человека.
Утром мама не нашла Стёпку - он ушел искать исток реки. Так начались Степкины приключения...-Релиз: -Семпл: http://sendfile.su/1357175-Тип релиза: Screener
Контейнер: MPG
Видео: 720x576 (4:3) @ 768x576, 25.000 fps, MPEG-2 Video, ~6050 Kbps, 0.584 bits/pixel
Аудио: Русский, 48.0 KHz, AC3, 2 ch, 256 Kbps

MediaInfo

GeneralComplete name                            : Здравствуй, река 1978.mpgFormat                                   : MPEG-PSFile size                                : 2.77 GiBDuration                                 : 1 h 1 minOverall bit rate mode                    : VariableOverall bit rate                         : 6 434 kb/s
VideoID : 224 (0xE0)Format : MPEG VideoFormat version : Version 2Format profile : Main@MainFormat settings, BVOP : YesFormat settings, Matrix : CustomFormat settings, GOP : M=3, N=12Format settings, picture structure : FrameDuration : 1 h 1 minBit rate mode : VariableBit rate : 6 050 kb/sMaximum bit rate : 9 600 kb/sWidth : 720 pixelsHeight : 576 pixelsDisplay aspect ratio : 4:3Frame rate : 25.000 FPSStandard : PALColor space : YUVChroma subsampling : 4:2:0Bit depth : 8 bitsScan type : InterlacedScan order : Top Field FirstCompression mode : LossyBits/(Pixel*Frame) : 0.584Time code of first frame : 00:00:00:00Time code source : Group of pictures headerGOP, Open/Closed : OpenGOP, Open/Closed of first frame : ClosedStream size : 2.60 GiB (94%)
AudioID : 189 (0xBD)-128 (0x80)Format : AC-3Format/Info : Audio Coding 3Format settings, Endianness : BigMuxing mode : DVD-VideoDuration : 1 h 1 minBit rate mode : ConstantBit rate : 256 kb/sChannel(s) : 2 channelsChannel positions : Front: L RSampling rate : 48.0 kHzFrame rate : 31.250 FPS (1536 SPF)Bit depth : 16 bitsCompression mode : LossyStream size : 113 MiB (4%)Service kind : Complete Main

Скриншоты

Вы не можете начинать темы
Вы не можете отвечать на сообщения
Вы не можете редактировать свои сообщения
Вы не можете удалять свои сообщения
Вы не можете голосовать в опросах
Вы не можете прикреплять файлы к сообщениям
Вы можете скачивать файлы
!ВНИМАНИЕ!

Сайт не предоставляет электронные версии произведений, а занимается лишь коллекционированием и каталогизацией ссылок, присылаемых и публикуемых на форуме нашими читателями. Если вы являетесь правообладателем какого-либо представленного материала и не желаете, чтобы ссылка на него находилась в нашем каталоге, свяжитесь с нами, и мы незамедлительно удалим ее. Файлы для обмена на трекере предоставлены пользователями сайта, и администрация не несет ответственности за их содержание. Просьба не заливать файлы, защищенные авторскими правами, а также файлы нелегального содержания!

Искали программы, игры, дополнения, музыка mp3, аниме, аудио книги, журналы? Добро пожаловать на свободный торрент трекер Torrents, у нас можно скачать бесплатно, без смс и регистрации и прочих ограничений лучшие, отборные сборки программ, игр. Скачать торрентом не составит труда даже не опытному пользователю. Раздачи ежедневно обновляются, только лучшие и качественные раздачи, подробные описания и скриншоты. Огромная коллекция программ для работы со звуком, графикой, дизайном, а так же множество плагинов и инструментов к ним с подробной инструкцией и рекомендациями. Прошивки для навигаторов, карты. Разнообразные игры, для Windows, Linux. В коллекцие есть и старые игры любых жанров, Rpg, Action, Shooter, strategy Множество дополнений, модификаций, сценариев для популярных игр в жанре экш, рпг, гонки, стратегии, логические игры. Множество аддонов и сценариев для Microsoft Flight Simulator Большая коллекция книг, учебников. Если нет возможности купить печатное издание - смело скачивайте цифровую версию книги или, быть может, журнала. Не любите читать - можно загрузить бесплатно аудикнигу. Для веб дизайнеров и программистов так же найдется множество специализированного софта, таких как: редакторы с подсветкой, среды программирования, компоненты, системы управления базами данных, разнообразные скрипты и шаблоны. Не так давно у нас появился материал для автолюбителей и владельцев мото - оригинальные и неоригинальные каталоги запчастей, книги и журналы по ремонту и обслуживанию, видеоуроки, статьи по чип тюнингу, прошивкам. Процедура получения контента элементарная, достаточно просто скачать торрент файл и добавить его в загрузку в вашем торрент клиенте. Если у вас нет специального торрент клиента, вы можете его скачать у нас.