Imagine Dragons Bad Liar Audio | Bobby Flay | Genocidal Organ Genocidal Organ (2017) Thriller, Science Fiction, AnimationDurch einen Atombombenangriff wurde die Stadt Sarajevo zerstört. Nicht nur das, auch das ganze Staatssystem änderte sich durch den Anschlag. Aus einer Demokratie wurde ein Überwachungsstaat. Ein Amerikaner gerät ins Visier eines Geheimdienstmitarbeiters, der ihn zum wahren Herzen der Finsternis führen soll: dem Genocidal Organ.

Там, где цветут эдельвейсы (Шарип Бейсембаев, Ефим Арон) [1965, приключения, DVB] 

Цитировать
Там, где цветут эдельвейсы Жанр: приключения
Студия: Казахфильм
Продолжительность: 01:19:25
Год выпуска: 1965-Режиссёры: Шарип Бейсембаев, Ефим Арон
В ролях: Валерий Косенков, Лилия Шарапова, Капан Бадыров, Л. Калюжская, Валерий Носик, Елеубай Умурзаков, Любовь Калюжная, Иван Косых, Галина Чигинская.-Описание: Высоко в горах, на пограничной заставе растут эдельвейсы. Однажды цветок стал причиной ложной тревоги — испытанием, которое выдержал сержант Сундетбаев и вся застава. Но тревоги бывали не всегда ложными…-Доп. информация: Новая редакция, 1988 г.-
Семпл: http://sendfile.su/1357329-Качество: DVB [Ел Арна]
Формат: TS
Видео: AVC, 720x576 (16:9) @ 1047x576, 25 fps, ~2096 kbps, 0.202 bit/pixel
Аудио: [RUS] MP2, 48 kHz, 2 ch, 192 kbps

Mediainfo

Общее
Идентификатор : 1 (0x1)
Полное имя : F:\Там, где цветут эдельвейсы (1965).ts
Формат : MPEG-TS
Размер файла : 1,34 Гбайт
Продолжительность : 1 ч. 19 м.
Режим общего битрейта : Переменный
Общий поток : 2409 Кбит/сек
Видео
Идентификатор : 68 (0x44)
Идентификатор меню : 1 (0x1)
Формат : AVC
Формат/Информация : Advanced Video Codec
Профиль формата : High@L3
Параметр CABAC формата : Да
Параметр ReFrames формата : 3 кадра
Идентификатор кодека : 27
Продолжительность : 1 ч. 19 м.
Битрейт : 2096 Кбит/сек
Ширина : 720 пикселей
Высота : 576 пикселей
Соотношение сторон : 16:9
Частота кадров : 25,000 кадров/сек
Стандарт вещания : Component
Цветовое пространство : YUV
Субдискретизация насыщенности : 4:2:0
Битовая глубина : 8 бит
Тип развёртки : Чересстрочная
Метод сохранения типа развёртки : Раздельные поля
Порядок развёртки : Верхнее поле первое
Бит/(Пиксели*Кадры) : 0.202
Размер потока : 1,16 Гбайт (87%)
Цветовой диапазон : Limited
Основные цвета : BT.601 PAL
Характеристики трансфера : BT.470 System B, BT.470 System G
Коэффициенты матрицы : BT.601
Аудио
Идентификатор : 69 (0x45)
Идентификатор меню : 1 (0x1)
Формат : MPEG Audio
Версия формата : Version 1
Профиль формата : Layer 2
Идентификатор кодека : 3
Продолжительность : 1 ч. 19 м.
Вид битрейта : Постоянный
Битрейт : 192 Кбит/сек
Каналы : 2 канала
Частота : 48,0 КГц
Метод сжатия : С потерями
Размер потока : 109 Мбайт (8%)
Язык : English

Скриншоты

Вы не можете начинать темы
Вы не можете отвечать на сообщения
Вы не можете редактировать свои сообщения
Вы не можете удалять свои сообщения
Вы не можете голосовать в опросах
Вы не можете прикреплять файлы к сообщениям
Вы можете скачивать файлы
!ВНИМАНИЕ!

Сайт не предоставляет электронные версии произведений, а занимается лишь коллекционированием и каталогизацией ссылок, присылаемых и публикуемых на форуме нашими читателями. Если вы являетесь правообладателем какого-либо представленного материала и не желаете, чтобы ссылка на него находилась в нашем каталоге, свяжитесь с нами, и мы незамедлительно удалим ее. Файлы для обмена на трекере предоставлены пользователями сайта, и администрация не несет ответственности за их содержание. Просьба не заливать файлы, защищенные авторскими правами, а также файлы нелегального содержания!

Искали программы, игры, дополнения, музыка mp3, аниме, аудио книги, журналы? Добро пожаловать на свободный торрент трекер Torrents, у нас можно скачать бесплатно, без смс и регистрации и прочих ограничений лучшие, отборные сборки программ, игр. Скачать торрентом не составит труда даже не опытному пользователю. Раздачи ежедневно обновляются, только лучшие и качественные раздачи, подробные описания и скриншоты. Огромная коллекция программ для работы со звуком, графикой, дизайном, а так же множество плагинов и инструментов к ним с подробной инструкцией и рекомендациями. Прошивки для навигаторов, карты. Разнообразные игры, для Windows, Linux. В коллекцие есть и старые игры любых жанров, Rpg, Action, Shooter, strategy Множество дополнений, модификаций, сценариев для популярных игр в жанре экш, рпг, гонки, стратегии, логические игры. Множество аддонов и сценариев для Microsoft Flight Simulator Большая коллекция книг, учебников. Если нет возможности купить печатное издание - смело скачивайте цифровую версию книги или, быть может, журнала. Не любите читать - можно загрузить бесплатно аудикнигу. Для веб дизайнеров и программистов так же найдется множество специализированного софта, таких как: редакторы с подсветкой, среды программирования, компоненты, системы управления базами данных, разнообразные скрипты и шаблоны. Не так давно у нас появился материал для автолюбителей и владельцев мото - оригинальные и неоригинальные каталоги запчастей, книги и журналы по ремонту и обслуживанию, видеоуроки, статьи по чип тюнингу, прошивкам. Процедура получения контента элементарная, достаточно просто скачать торрент файл и добавить его в загрузку в вашем торрент клиенте. Если у вас нет специального торрент клиента, вы можете его скачать у нас.