Un amor de verano (La belle saison) (2015) | 7.0 | Delinquent

(Progressive House, Breakbeat, Downtempo) Hybrid - Re Mixed - 2007, FLAC (tracks+.cue), lossless 

Цитировать
Hybrid - Re_Mixed
Жанр: Progressive House, Breakbeat, Downtempo
Год выпуска диска: 2007
Производитель диска: Distinct'ive Records / DISNCD175
Аудио кодек: FLAC
Тип рипа: tracks+.cue
Битрейт аудио: lossless
Продолжительность: 02:05:21
Трэклист:
1-01 Until Tomorrow (Stefan Anion And Starfire's Surviving Another Day Mix) (9:24)
1-02 Just For Today (Jerome Sydenham Remix) (7:24)
1-03 I Know (Keenan & Anderson Remix) (10:24)
1-04 Falling Down (Kosheen DJs Remix) (7:46)
1-05 Finished Symphony (Deadmau5 Remix) (6:28)
1-06 If I Survive (Jerome Sydenham Remix) (6:54)
1-07 Keep It In The Family (Tomboy's Quirky Piano-Intro Version) (6:49)
1-08 Higher Than A Skyscraper (Orb's Towers Of Babel Mix) (9:17)
1-09 Blackout (The Cinematic Orchestra Remix) (7:49)
2-01 Finished Symphony (Deadset Play Nifty Remix) (7:10)
2-02 Sleepwalking (Hybrid's Original Mix) (7:20)
2-03 Until Tomorrow (Serge Santiago Remix) (9:02)
2-04 I Choose Noise (Elite Force Remix) (7:25)
2-05 Last Man Standing (Group Therapy Remix) (8:04)
2-06 Higher Than A Skyscraper (Boy 8-Bit Remix) (4:35)
2-07 Theme From Wide Angle (Hybrid's Rolling Thunder Mix) (9:31)
www.discogs.com/release/1113524

Лог EAC CD1

Exact Audio Copy V0.99 prebeta 3 from 28. July 2007
EAC extraction logfile from 11. January 2008, 22:57
Hybrid / Re_Mixed
Used drive : OPTIARC DVD RW AD-5630A Adapter: 0 ID: 0
Read mode : SecureUtilize accurate stream : YesDefeat audio cache : YesMake use of C2 pointers : No
Read offset correction : 48Overread into Lead-In and Lead-Out : NoFill up missing offset samples with silence : YesDelete leading and trailing silent blocks : NoNull samples used in CRC calculations : YesUsed interface : Installed external ASPI interfaceGap handling : Appended to previous track
Used output format : User Defined EncoderSelected bitrate : 192 kBit/sQuality : HighAdd ID3 tag : NoCommand line compressor : C:\Program Files\Exact Audio Copy\flac.exeAdditional command line options : -8 -A tukey(0.25) -A gauss(0.1875) -b 4096 -V -T "artist=%a" -T "title=%t" -T "album=%g" -T "date=%y" -T "tracknumber=%n" -T "genre=%m" %s --sector-align
TOC of the extracted CD
Track | Start | Length | Start sector | End sector --------------------------------------------------------- 1 | 0:00.00 | 9:24.04 | 0 | 42303 2 | 9:24.04 | 7:24.04 | 42304 | 75607 3 | 16:48.08 | 10:23.73 | 75608 | 122405 4 | 27:12.06 | 7:46.17 | 122406 | 157372 5 | 34:58.23 | 6:27.53 | 157373 | 186450 6 | 41:26.01 | 6:54.28 | 186451 | 217528 7 | 48:20.29 | 6:48.62 | 217529 | 248190 8 | 55:09.16 | 9:17.12 | 248191 | 289977 9 | 64:26.28 | 7:48.57 | 289978 | 325134
Track 1
Filename C:\Documents and Settings\Administrator\Desktop\Hybrid - Re_Mixed (FLAC)\Disc One\01 - Hybrid - Until Tomorrow (Stefan Anion and Starfire's Surviving Another Day Mix).wav
Pre-gap length 0:00:02.00
Peak level 98.8 % Track quality 100.0 % Test CRC C61F74D0 Copy CRC C61F74D0 Accurately ripped (confidence 2) [1E094858] Copy OK
Track 2
Filename C:\Documents and Settings\Administrator\Desktop\Hybrid - Re_Mixed (FLAC)\Disc One\02 - Hybrid - Just for Today (Jerome Sydenham Remix).wav
Pre-gap length 0:00:00.14
Peak level 99.4 % Track quality 100.0 % Test CRC AF1CB613 Copy CRC AF1CB613 Accurately ripped (confidence 2) [DE12C638] Copy OK
Track 3
Filename C:\Documents and Settings\Administrator\Desktop\Hybrid - Re_Mixed (FLAC)\Disc One\03 - Hybrid - I Know (Keenan & Anderson Remix).wav
Pre-gap length 0:00:00.08
Peak level 99.4 % Track quality 100.0 % Test CRC 99F695A8 Copy CRC 99F695A8 Accurately ripped (confidence 2) [F5608180] Copy OK
Track 4
Filename C:\Documents and Settings\Administrator\Desktop\Hybrid - Re_Mixed (FLAC)\Disc One\04 - Hybrid - Falling Down (Kosheen DJs Remix).wav
Pre-gap length 0:00:00.13
Peak level 99.4 % Track quality 99.9 % Test CRC 024E67D8 Copy CRC 024E67D8 Accurately ripped (confidence 2) [7E1EAA22] Copy OK
Track 5
Filename C:\Documents and Settings\Administrator\Desktop\Hybrid - Re_Mixed (FLAC)\Disc One\05 - Hybrid - Finished Symphony (Deadmau5 Remix).wav
Pre-gap length 0:00:00.42
Peak level 99.4 % Track quality 100.0 % Test CRC D0BAC5AC Copy CRC D0BAC5AC Accurately ripped (confidence 2) [B076FDEE] Copy OK
Track 6
Filename C:\Documents and Settings\Administrator\Desktop\Hybrid - Re_Mixed (FLAC)\Disc One\06 - Hybrid - If I Survive (Jerome Sydenham Remix).wav
Pre-gap length 0:00:00.16
Peak level 99.9 % Track quality 100.0 % Test CRC D350E4F5 Copy CRC D350E4F5 Accurately ripped (confidence 2) [C0D6E7C1] Copy OK
Track 7
Filename C:\Documents and Settings\Administrator\Desktop\Hybrid - Re_Mixed (FLAC)\Disc One\07 - Hybrid - Keep it in the Family (Tomboy's Quirky Piano-Intro Version).wav
Peak level 99.8 % Track quality 100.0 % Test CRC A0457CBA Copy CRC A0457CBA Accurately ripped (confidence 2) [5715FFE5] Copy OK
Track 8
Filename C:\Documents and Settings\Administrator\Desktop\Hybrid - Re_Mixed (FLAC)\Disc One\08 - Hybrid - Higher than a Skyscraper (Orb's Towers of Babel Mix).wav
Pre-gap length 0:00:00.05
Peak level 99.4 % Track quality 100.0 % Test CRC 84ECF41B Copy CRC 84ECF41B Accurately ripped (confidence 2) [6D1D149F] Copy OK
Track 9
Filename C:\Documents and Settings\Administrator\Desktop\Hybrid - Re_Mixed (FLAC)\Disc One\09 - Hybrid - Blackout (The Cinematic Orchestra Remix).wav
Pre-gap length 0:00:00.02
Peak level 99.3 % Track quality 100.0 % Test CRC 9E650CAB Copy CRC 9E650CAB Accurately ripped (confidence 3) [94EDDD32] Copy OK
All tracks accurately ripped
No errors occurred
End of status report

Лог EAC CD2

Exact Audio Copy V0.99 prebeta 3 from 28. July 2007
EAC extraction logfile from 12. January 2008, 1:50
Hybrid / Re_Mixed
Used drive : OPTIARC DVD RW AD-5630A Adapter: 0 ID: 0
Read mode : SecureUtilize accurate stream : YesDefeat audio cache : YesMake use of C2 pointers : No
Read offset correction : 48Overread into Lead-In and Lead-Out : NoFill up missing offset samples with silence : YesDelete leading and trailing silent blocks : NoNull samples used in CRC calculations : YesUsed interface : Installed external ASPI interfaceGap handling : Appended to previous track
Used output format : User Defined EncoderSelected bitrate : 192 kBit/sQuality : HighAdd ID3 tag : NoCommand line compressor : C:\Program Files\Exact Audio Copy\flac.exeAdditional command line options : -8 -A tukey(0.25) -A gauss(0.1875) -b 4096 -V -T "artist=%a" -T "title=%t" -T "album=%g" -T "date=%y" -T "tracknumber=%n" -T "genre=%m" %s --sector-align
TOC of the extracted CD
Track | Start | Length | Start sector | End sector --------------------------------------------------------- 1 | 0:00.00 | 7:10.07 | 0 | 32256 2 | 7:10.07 | 7:20.19 | 32257 | 65275 3 | 14:30.26 | 9:02.13 | 65276 | 105938 4 | 23:32.39 | 7:24.60 | 105939 | 139298 5 | 30:57.24 | 8:03.73 | 139299 | 175596 6 | 39:01.22 | 4:34.41 | 175597 | 196187 7 | 43:35.63 | 9:30.54 | 196188 | 238991
Track 1
Filename C:\Documents and Settings\Administrator\Desktop\Hybrid - Re_Mixed (FLAC)\Disc Two\01 - Hybrid - Finished Symphony (Deadset Play Nifty Remix).wav
Pre-gap length 0:00:02.00
Peak level 99.4 % Track quality 100.0 % Test CRC B7863810 Copy CRC B7863810 Accurately ripped (confidence 4) [07745A9E] Copy OK
Track 2
Filename C:\Documents and Settings\Administrator\Desktop\Hybrid - Re_Mixed (FLAC)\Disc Two\02 - Hybrid - Sleepwalking (Hybrid's Original Mix).wav
Pre-gap length 0:00:00.20
Peak level 99.4 % Track quality 100.0 % Test CRC 2CEB857F Copy CRC 2CEB857F Accurately ripped (confidence 4) [E7D3123A] Copy OK
Track 3
Filename C:\Documents and Settings\Administrator\Desktop\Hybrid - Re_Mixed (FLAC)\Disc Two\03 - Hybrid - Until Tomorrow (Serge Santiago Remix).wav
Pre-gap length 0:00:00.66
Peak level 99.4 % Track quality 100.0 % Test CRC DC3250FF Copy CRC DC3250FF Accurately ripped (confidence 4) [5F741DC0] Copy OK
Track 4
Filename C:\Documents and Settings\Administrator\Desktop\Hybrid - Re_Mixed (FLAC)\Disc Two\04 - Hybrid - I Choose Noise (Elite Force Remix).wav
Pre-gap length 0:00:00.40
Peak level 99.4 % Track quality 100.0 % Test CRC 1CA755E5 Copy CRC 1CA755E5 Accurately ripped (confidence 3) [5F33E620] Copy OK
Track 5
Filename C:\Documents and Settings\Administrator\Desktop\Hybrid - Re_Mixed (FLAC)\Disc Two\05 - Hybrid - Last Man Standing (Group Therapy Remix).wav
Pre-gap length 0:00:00.01
Peak level 99.4 % Track quality 100.0 % Test CRC 35BB0206 Copy CRC 35BB0206 Accurately ripped (confidence 3) [9D9CD83B] Copy OK
Track 6
Filename C:\Documents and Settings\Administrator\Desktop\Hybrid - Re_Mixed (FLAC)\Disc Two\06 - Hybrid - Higher than a Skyscraper (Boy 8-Bit Remix).wav
Peak level 99.4 % Track quality 100.0 % Test CRC A8E80764 Copy CRC A8E80764 Accurately ripped (confidence 3) [26B837A2] Copy OK
Track 7
Filename C:\Documents and Settings\Administrator\Desktop\Hybrid - Re_Mixed (FLAC)\Disc Two\07 - Hybrid - Theme From Wide Angle (Hybrid's Rolling Thunder Mix).wav
Pre-gap length 0:00:00.21
Peak level 99.4 % Track quality 100.0 % Test CRC 562BFFAE Copy CRC 562BFFAE Accurately ripped (confidence 3) [CBEB30A2] Copy OK
All tracks accurately ripped
No errors occurred
End of status report

Лог Audiochecker CD1

1 -===- F:\what\Hybrid - Re_Mixed (FLAC)\Disc One\01 - Hybrid - Until Tomorrow (Stefan Anion and Starfire's Surviving Another Day Mix).flac  Extracted successfully  Conclusion: this track is CDDA with probability 100%  Tempfile successfully deleted.
2 -===- F:\what\Hybrid - Re_Mixed (FLAC)\Disc One\02 - Hybrid - Just for Today (Jerome Sydenham Remix).flac Extracted successfully Conclusion: this track is CDDA with probability 100% Tempfile successfully deleted.
3 -===- F:\what\Hybrid - Re_Mixed (FLAC)\Disc One\03 - Hybrid - I Know (Keenan & Anderson Remix).flac Extracted successfully Conclusion: this track is MPEG with probability 95% Tempfile successfully deleted.
4 -===- F:\what\Hybrid - Re_Mixed (FLAC)\Disc One\04 - Hybrid - Falling Down (Kosheen DJs Remix).flac Extracted successfully Conclusion: this track is CDDA with probability 99% Tempfile successfully deleted.
5 -===- F:\what\Hybrid - Re_Mixed (FLAC)\Disc One\05 - Hybrid - Finished Symphony (Deadmau5 Remix).flac Extracted successfully Conclusion: this track is CDDA with probability 100% Tempfile successfully deleted.
6 -===- F:\what\Hybrid - Re_Mixed (FLAC)\Disc One\06 - Hybrid - If I Survive (Jerome Sydenham Remix).flac Extracted successfully Conclusion: this track is CDDA with probability 100% Tempfile successfully deleted.
7 -===- F:\what\Hybrid - Re_Mixed (FLAC)\Disc One\07 - Hybrid - Keep it in the Family (Tomboy's Quirky Piano-Intro Version).flac Extracted successfully Conclusion: this track is CDDA with probability 100% Tempfile successfully deleted.
8 -===- F:\what\Hybrid - Re_Mixed (FLAC)\Disc One\08 - Hybrid - Higher than a Skyscraper (Orb's Towers of Babel Mix).flac Extracted successfully Conclusion: this track is CDDA with probability 100% Tempfile successfully deleted.
9 -===- F:\what\Hybrid - Re_Mixed (FLAC)\Disc One\09 - Hybrid - Blackout (The Cinematic Orchestra Remix).flac Extracted successfully Conclusion: this track is CDDA with probability 99% Tempfile successfully deleted.

Лог Audiochecker CD2

1 -===- F:\what\Hybrid - Re_Mixed (FLAC)\Disc Two\01 - Hybrid - Finished Symphony (Deadset Play Nifty Remix).flac  Extracted successfully  Conclusion: this track is CDDA with probability 100%  Tempfile successfully deleted.
2 -===- F:\what\Hybrid - Re_Mixed (FLAC)\Disc Two\02 - Hybrid - Sleepwalking (Hybrid's Original Mix).flac Extracted successfully Conclusion: this track is CDDA with probability 100% Tempfile successfully deleted.
3 -===- F:\what\Hybrid - Re_Mixed (FLAC)\Disc Two\03 - Hybrid - Until Tomorrow (Serge Santiago Remix).flac Extracted successfully Conclusion: this track is CDDA with probability 99% Tempfile successfully deleted.
4 -===- F:\what\Hybrid - Re_Mixed (FLAC)\Disc Two\04 - Hybrid - I Choose Noise (Elite Force Remix).flac Extracted successfully Conclusion: this track is CDDA with probability 100% Tempfile successfully deleted.
5 -===- F:\what\Hybrid - Re_Mixed (FLAC)\Disc Two\05 - Hybrid - Last Man Standing (Group Therapy Remix).flac Extracted successfully Conclusion: this track is CDDA with probability 100% Tempfile successfully deleted.
6 -===- F:\what\Hybrid - Re_Mixed (FLAC)\Disc Two\06 - Hybrid - Higher than a Skyscraper (Boy 8-Bit Remix).flac Extracted successfully Conclusion: this track is CDDA with probability 100% Tempfile successfully deleted.
7 -===- F:\what\Hybrid - Re_Mixed (FLAC)\Disc Two\07 - Hybrid - Theme From Wide Angle (Hybrid's Rolling Thunder Mix).flac Extracted successfully Conclusion: this track is CDDA with probability 100% Tempfile successfully deleted.
С ваты
Вы не можете начинать темы
Вы не можете отвечать на сообщения
Вы не можете редактировать свои сообщения
Вы не можете удалять свои сообщения
Вы не можете голосовать в опросах
Вы не можете прикреплять файлы к сообщениям
Вы можете скачивать файлы
!ВНИМАНИЕ!

Сайт не предоставляет электронные версии произведений, а занимается лишь коллекционированием и каталогизацией ссылок, присылаемых и публикуемых на форуме нашими читателями. Если вы являетесь правообладателем какого-либо представленного материала и не желаете, чтобы ссылка на него находилась в нашем каталоге, свяжитесь с нами, и мы незамедлительно удалим ее. Файлы для обмена на трекере предоставлены пользователями сайта, и администрация не несет ответственности за их содержание. Просьба не заливать файлы, защищенные авторскими правами, а также файлы нелегального содержания!

Искали программы, игры, дополнения, музыка mp3, аниме, аудио книги, журналы? Добро пожаловать на свободный торрент трекер Torrents, у нас можно скачать бесплатно, без смс и регистрации и прочих ограничений лучшие, отборные сборки программ, игр. Скачать торрентом не составит труда даже не опытному пользователю. Раздачи ежедневно обновляются, только лучшие и качественные раздачи, подробные описания и скриншоты. Огромная коллекция программ для работы со звуком, графикой, дизайном, а так же множество плагинов и инструментов к ним с подробной инструкцией и рекомендациями. Прошивки для навигаторов, карты. Разнообразные игры, для Windows, Linux. В коллекцие есть и старые игры любых жанров, Rpg, Action, Shooter, strategy Множество дополнений, модификаций, сценариев для популярных игр в жанре экш, рпг, гонки, стратегии, логические игры. Множество аддонов и сценариев для Microsoft Flight Simulator Большая коллекция книг, учебников. Если нет возможности купить печатное издание - смело скачивайте цифровую версию книги или, быть может, журнала. Не любите читать - можно загрузить бесплатно аудикнигу. Для веб дизайнеров и программистов так же найдется множество специализированного софта, таких как: редакторы с подсветкой, среды программирования, компоненты, системы управления базами данных, разнообразные скрипты и шаблоны. Не так давно у нас появился материал для автолюбителей и владельцев мото - оригинальные и неоригинальные каталоги запчастей, книги и журналы по ремонту и обслуживанию, видеоуроки, статьи по чип тюнингу, прошивкам. Процедура получения контента элементарная, достаточно просто скачать торрент файл и добавить его в загрузку в вашем торрент клиенте. Если у вас нет специального торрент клиента, вы можете его скачать у нас.