Hidden Kingdoms | 2 Guns BluRay 1080p | IObit Uninstaller Pro 8 0 2 29 + Crack [New]

(Electro Dub) Wangtone - Wang Lei Meets High Tone - 2005, FLAC (tracks+.cue), lossless 

Цитировать
Wangtone - Wang Lei Meets High Tone
Жанр: Electro Dub
Год выпуска диска: 2005
Производитель диска: France
Аудио кодек: FLAC
Тип рипа: tracks+.cue
Битрейт аудио: lossless
Продолжительность: 00:39:24
Трэклист:
01 Tchen
02 Kouai
03 Ko
04 Xu / Preambule
05 Bi Ma Wen / Le Palefrenier Des Écuries Célestes
06 Balistik Affair
07 Slide
08 K'an
Доп. информация: Совместный проект Wang Lei и High Tone

XLD log

X Lossless Decoder version 20090320 (105.1)
XLD extraction logfile from 2009-07-30 11:10:52 +0200
High Tone meets Wang Lei / Wangtone
Used drive : OPTIARC DVD RW AD-7170A (revision 1.NC)
Use cdparanoia mode : YES (CDParanoia III 10.2 engine)Disable audio cache : OK for the drive with cache less than 2750KBMake use of C2 pointers : NORead offset correction : 48Max retry count : 100
TOC of the extracted CD Track | Start | Length | Start sector | End sector --------------------------------------------------------- 1 | 00:00:00 | 03:26:00 | 0 | 15449 2 | 03:26:00 | 06:47:20 | 15450 | 45994 3 | 10:13:20 | 04:57:19 | 45995 | 68288 4 | 15:10:39 | 01:01:47 | 68289 | 72910 5 | 16:12:11 | 07:17:21 | 72911 | 105706 6 | 23:29:32 | 05:05:16 | 105707 | 128597 7 | 28:34:48 | 06:11:19 | 128598 | 156441 8 | 34:45:67 | 04:38:26 | 156442 | 177317
All Tracks Album gain : -7.81 dB Peak : 0.999237
Track 01 Filename : /Volumes/Storage/Media/What.cd Uploads/FLAC/Wangtone/01 - Tchen.flac
Track gain : -3.46 dB Peak : 0.991913 CRC32 hash (test run) : 4AE12DEA CRC32 hash : 4AE12DEA CRC32 hash (skip zero) : A408F8DB AccurateRip signature : 8ADDC0D9 ->Track not present in AccurateRip database. Statistics Read error : 0 Skipped (treated as error) : 0 Edge jitter error (maybe fixed) : 0 Atom jitter error (maybe fixed) : 0 Drift error (maybe fixed) : 0 Dropped bytes error (maybe fixed) : 0 Duplicated bytes error (maybe fixed) : 0 Inconsistency in error sectors : 0
Track 02 Filename : /Volumes/Storage/Media/What.cd Uploads/FLAC/Wangtone/02 - Kouai.flac
Track gain : -6.98 dB Peak : 0.994202 CRC32 hash (test run) : 229A88B7 CRC32 hash : 229A88B7 CRC32 hash (skip zero) : 55ADBFA0 AccurateRip signature : D8079650 ->Track not present in AccurateRip database. Statistics Read error : 0 Skipped (treated as error) : 0 Edge jitter error (maybe fixed) : 0 Atom jitter error (maybe fixed) : 0 Drift error (maybe fixed) : 0 Dropped bytes error (maybe fixed) : 0 Duplicated bytes error (maybe fixed) : 0 Inconsistency in error sectors : 0
Track 03 Filename : /Volumes/Storage/Media/What.cd Uploads/FLAC/Wangtone/03 - Ko.flac
Track gain : -8.30 dB Peak : 0.994202 CRC32 hash (test run) : B1AF8B33 CRC32 hash : B1AF8B33 CRC32 hash (skip zero) : 3C6069AA AccurateRip signature : 78D88105 ->Track not present in AccurateRip database. Statistics Read error : 0 Skipped (treated as error) : 0 Edge jitter error (maybe fixed) : 0 Atom jitter error (maybe fixed) : 0 Drift error (maybe fixed) : 0 Dropped bytes error (maybe fixed) : 0 Duplicated bytes error (maybe fixed) : 0 Inconsistency in error sectors : 0
Track 04 Filename : /Volumes/Storage/Media/What.cd Uploads/FLAC/Wangtone/04 - Xu/Préambule.flac
Track gain : -1.35 dB Peak : 0.999237 CRC32 hash (test run) : 85798229 CRC32 hash : 85798229 CRC32 hash (skip zero) : C3F62047 AccurateRip signature : 10E2CCE1 ->Track not present in AccurateRip database. Statistics Read error : 0 Skipped (treated as error) : 0 Edge jitter error (maybe fixed) : 0 Atom jitter error (maybe fixed) : 0 Drift error (maybe fixed) : 0 Dropped bytes error (maybe fixed) : 0 Duplicated bytes error (maybe fixed) : 0 Inconsistency in error sectors : 0
Track 05 Filename : /Volumes/Storage/Media/What.cd Uploads/FLAC/Wangtone/05 - Bi Ma Wen/Le palefrenier des écuries célestes.flac
Track gain : -6.55 dB Peak : 0.999207 CRC32 hash (test run) : 3CAD64E0 CRC32 hash : 3CAD64E0 CRC32 hash (skip zero) : 58405AB5 AccurateRip signature : C363E052 ->Track not present in AccurateRip database. Statistics Read error : 0 Skipped (treated as error) : 0 Edge jitter error (maybe fixed) : 1 Atom jitter error (maybe fixed) : 1 Drift error (maybe fixed) : 0 Dropped bytes error (maybe fixed) : 0 Duplicated bytes error (maybe fixed) : 0 Inconsistency in error sectors : 0
Track 06 Filename : /Volumes/Storage/Media/What.cd Uploads/FLAC/Wangtone/06 - Ballistik Affair.flac
Track gain : -7.90 dB Peak : 0.994202 CRC32 hash (test run) : 77FEAFBF CRC32 hash : 77FEAFBF CRC32 hash (skip zero) : 60953F31 AccurateRip signature : 88763C79 ->Track not present in AccurateRip database. Statistics Read error : 0 Skipped (treated as error) : 0 Edge jitter error (maybe fixed) : 0 Atom jitter error (maybe fixed) : 0 Drift error (maybe fixed) : 0 Dropped bytes error (maybe fixed) : 0 Duplicated bytes error (maybe fixed) : 0 Inconsistency in error sectors : 0
Track 07 Filename : /Volumes/Storage/Media/What.cd Uploads/FLAC/Wangtone/07 - Slide.flac
Track gain : -7.13 dB Peak : 0.994202 CRC32 hash (test run) : C0C453F1 CRC32 hash : C0C453F1 CRC32 hash (skip zero) : 4AD75031 AccurateRip signature : 76A3A2DA ->Track not present in AccurateRip database. Statistics Read error : 0 Skipped (treated as error) : 0 Edge jitter error (maybe fixed) : 0 Atom jitter error (maybe fixed) : 0 Drift error (maybe fixed) : 0 Dropped bytes error (maybe fixed) : 0 Duplicated bytes error (maybe fixed) : 0 Inconsistency in error sectors : 0
Track 08 Filename : /Volumes/Storage/Media/What.cd Uploads/FLAC/Wangtone/08 - K'an.flac
Track gain : -9.91 dB Peak : 0.994202 CRC32 hash (test run) : 7D76490C CRC32 hash : 7D76490C CRC32 hash (skip zero) : 94830D5A AccurateRip signature : 59FDC621 ->Track not present in AccurateRip database. Statistics Read error : 0 Skipped (treated as error) : 0 Edge jitter error (maybe fixed) : 0 Atom jitter error (maybe fixed) : 0 Drift error (maybe fixed) : 0 Dropped bytes error (maybe fixed) : 0 Duplicated bytes error (maybe fixed) : 0 Inconsistency in error sectors : 0
No errors occurred
End of status report

Audiochecker log

AUDIOCHECKER v1.2 - by Dester - opdester@freemail.hu
~~~~~~~~~~~~~~~~~
1 -===- D:\torrents_up\Wangtone\01 - Tchen.flac
Extracted successfully
Conclusion: This track looks like CDDA with probability 100%
2 -===- D:\torrents_up\Wangtone\02 - Kouai.flac
Extracted successfully
Conclusion: This track looks like CDDA with probability 100%
3 -===- D:\torrents_up\Wangtone\03 - Ko.flac
Extracted successfully
Conclusion: This track looks like CDDA with probability 99%
4 -===- D:\torrents_up\Wangtone\04 - Xu Preambule.flac
Extracted successfully
Conclusion: This track looks like CDDA with probability 100%
5 -===- D:\torrents_up\Wangtone\05 - Bi Ma Wen Le palefrenier des ecuries celestes.flac
Extracted successfully
Conclusion: This track looks like CDDA with probability 100%
6 -===- D:\torrents_up\Wangtone\06 - Ballistik Affair.flac
Extracted successfully
Conclusion: This track looks like CDDA with probability 99%
7 -===- D:\torrents_up\Wangtone\07 - Slide.flac
Extracted successfully
Conclusion: This track looks like CDDA with probability 100%
8 -===- D:\torrents_up\Wangtone\08 - K'an.flac
Extracted successfully
Conclusion: This track looks like CDDA with probability 100%
-видео здесь
Вы не можете начинать темы
Вы не можете отвечать на сообщения
Вы не можете редактировать свои сообщения
Вы не можете удалять свои сообщения
Вы не можете голосовать в опросах
Вы не можете прикреплять файлы к сообщениям
Вы можете скачивать файлы
!ВНИМАНИЕ!

Сайт не предоставляет электронные версии произведений, а занимается лишь коллекционированием и каталогизацией ссылок, присылаемых и публикуемых на форуме нашими читателями. Если вы являетесь правообладателем какого-либо представленного материала и не желаете, чтобы ссылка на него находилась в нашем каталоге, свяжитесь с нами, и мы незамедлительно удалим ее. Файлы для обмена на трекере предоставлены пользователями сайта, и администрация не несет ответственности за их содержание. Просьба не заливать файлы, защищенные авторскими правами, а также файлы нелегального содержания!

Искали программы, игры, дополнения, музыка mp3, аниме, аудио книги, журналы? Добро пожаловать на свободный торрент трекер Torrents, у нас можно скачать бесплатно, без смс и регистрации и прочих ограничений лучшие, отборные сборки программ, игр. Скачать торрентом не составит труда даже не опытному пользователю. Раздачи ежедневно обновляются, только лучшие и качественные раздачи, подробные описания и скриншоты. Огромная коллекция программ для работы со звуком, графикой, дизайном, а так же множество плагинов и инструментов к ним с подробной инструкцией и рекомендациями. Прошивки для навигаторов, карты. Разнообразные игры, для Windows, Linux. В коллекцие есть и старые игры любых жанров, Rpg, Action, Shooter, strategy Множество дополнений, модификаций, сценариев для популярных игр в жанре экш, рпг, гонки, стратегии, логические игры. Множество аддонов и сценариев для Microsoft Flight Simulator Большая коллекция книг, учебников. Если нет возможности купить печатное издание - смело скачивайте цифровую версию книги или, быть может, журнала. Не любите читать - можно загрузить бесплатно аудикнигу. Для веб дизайнеров и программистов так же найдется множество специализированного софта, таких как: редакторы с подсветкой, среды программирования, компоненты, системы управления базами данных, разнообразные скрипты и шаблоны. Не так давно у нас появился материал для автолюбителей и владельцев мото - оригинальные и неоригинальные каталоги запчастей, книги и журналы по ремонту и обслуживанию, видеоуроки, статьи по чип тюнингу, прошивкам. Процедура получения контента элементарная, достаточно просто скачать торрент файл и добавить его в загрузку в вашем торрент клиенте. Если у вас нет специального торрент клиента, вы можете его скачать у нас.