Cardfight Vanguard Sub Indo Batch Eps 1-65 Lengkap | Black Cat | Movies 2016

(Breakbeat, House, Trance) Way Out West feat. Tricia Lee Kelshall - Mindcircus CDM - 2002, FLAC (tracks+.cue), lossless 

Цитировать
Way Out West feat. Tricia Lee Kelshall - Mindcircus CDM
Жанр: Breakbeat, House, Trance
Год выпуска диска: 2002
Производитель диска: UK
Аудио кодек: FLAC
Тип рипа: tracks+.cue
Битрейт аудио: lossless
Трэклист:
1 Mindcircus (Original Radio Edit) (3:33)
2 Mindcircus (Gabriel & Dresden Radio Edit) (3:42)
3 Mindcircus (Phunk Investigation Remix) (6:25)
4 Mindcircus (Fred Numf vs Etienne Overdijk Remix) (6:04)
Доп. информация:
Label: Distinct'ive Breaks Records
Catalog#: DISNCD80
Format: CD, Maxi-Single
Country: UK
Released: 2002
Style: Breakbeat, House, Trance

EAC Log

Exact Audio Copy V0.99 prebeta 4 from 23. January 2008
EAC extraction logfile from 20. October 2008, 18:57
Way Out West feat. Tricia Lee Kelshall / Mindcircus
Used drive : HL-DT-STDVD-ROM GDR8164B Adapter: 5 ID: 1
Read mode : SecureUtilize accurate stream : YesDefeat audio cache : YesMake use of C2 pointers : No
Read offset correction : 102Overread into Lead-In and Lead-Out : NoFill up missing offset samples with silence : YesDelete leading and trailing silent blocks : NoNull samples used in CRC calculations : YesUsed interface : Native Win32 interface for Win NT & 2000Gap handling : Appended to previous track
Used output format : Internal WAV RoutinesSample format : 44.100 Hz; 16 Bit; Stereo
TOC of the extracted CD
Track | Start | Length | Start sector | End sector --------------------------------------------------------- 1 | 0:00.00 | 3:34.67 | 0 | 16116 2 | 3:34.67 | 3:43.58 | 16117 | 32899 3 | 7:18.50 | 6:25.20 | 32900 | 61794 4 | 13:43.70 | 6:03.65 | 61795 | 89084
Track 1
Filename D:\RIPs\Way Out West feat. Tricia Lee Kelshall - Mindcircus CDM [2002]\01. Way Out West feat. Tricia Lee Kelshall - Mindcircus (Original Radio Edit).wav
Pre-gap length 0:00:02.00
Peak level 100.0 % Track quality 100.0 % Test CRC E3D3BE4E Copy CRC E3D3BE4E Track not present in AccurateRip database Copy OK
Track 2
Filename D:\RIPs\Way Out West feat. Tricia Lee Kelshall - Mindcircus CDM [2002]\02. Way Out West feat. Tricia Lee Kelshall - Mindcircus (Gabriel & Dresden Radio Edit).wav
Peak level 98.9 % Track quality 99.9 % Test CRC D66F9EAC Copy CRC D66F9EAC Track not present in AccurateRip database Copy OK
Track 3
Filename D:\RIPs\Way Out West feat. Tricia Lee Kelshall - Mindcircus CDM [2002]\03. Way Out West feat. Tricia Lee Kelshall - Mindcircus (Phunk Investigation Remix).wav
Pre-gap length 0:00:01.00
Peak level 100.0 % Track quality 100.0 % Test CRC 5B13E1E0 Copy CRC 5B13E1E0 Track not present in AccurateRip database Copy OK
Track 4
Filename D:\RIPs\Way Out West feat. Tricia Lee Kelshall - Mindcircus CDM [2002]\04. Way Out West feat. Tricia Lee Kelshall - Mindcircus (Fred Numf vs Etienne Overdijk Remix).wav
Peak level 100.0 % Track quality 100.0 % Test CRC 59AC8562 Copy CRC 59AC8562 Track not present in AccurateRip database Copy OK
None of the tracks are present in the AccurateRip database
No errors occurred
End of status report
Вы не можете начинать темы
Вы не можете отвечать на сообщения
Вы не можете редактировать свои сообщения
Вы не можете удалять свои сообщения
Вы не можете голосовать в опросах
Вы не можете прикреплять файлы к сообщениям
Вы можете скачивать файлы
!ВНИМАНИЕ!

Сайт не предоставляет электронные версии произведений, а занимается лишь коллекционированием и каталогизацией ссылок, присылаемых и публикуемых на форуме нашими читателями. Если вы являетесь правообладателем какого-либо представленного материала и не желаете, чтобы ссылка на него находилась в нашем каталоге, свяжитесь с нами, и мы незамедлительно удалим ее. Файлы для обмена на трекере предоставлены пользователями сайта, и администрация не несет ответственности за их содержание. Просьба не заливать файлы, защищенные авторскими правами, а также файлы нелегального содержания!

Искали программы, игры, дополнения, музыка mp3, аниме, аудио книги, журналы? Добро пожаловать на свободный торрент трекер Torrents, у нас можно скачать бесплатно, без смс и регистрации и прочих ограничений лучшие, отборные сборки программ, игр. Скачать торрентом не составит труда даже не опытному пользователю. Раздачи ежедневно обновляются, только лучшие и качественные раздачи, подробные описания и скриншоты. Огромная коллекция программ для работы со звуком, графикой, дизайном, а так же множество плагинов и инструментов к ним с подробной инструкцией и рекомендациями. Прошивки для навигаторов, карты. Разнообразные игры, для Windows, Linux. В коллекцие есть и старые игры любых жанров, Rpg, Action, Shooter, strategy Множество дополнений, модификаций, сценариев для популярных игр в жанре экш, рпг, гонки, стратегии, логические игры. Множество аддонов и сценариев для Microsoft Flight Simulator Большая коллекция книг, учебников. Если нет возможности купить печатное издание - смело скачивайте цифровую версию книги или, быть может, журнала. Не любите читать - можно загрузить бесплатно аудикнигу. Для веб дизайнеров и программистов так же найдется множество специализированного софта, таких как: редакторы с подсветкой, среды программирования, компоненты, системы управления базами данных, разнообразные скрипты и шаблоны. Не так давно у нас появился материал для автолюбителей и владельцев мото - оригинальные и неоригинальные каталоги запчастей, книги и журналы по ремонту и обслуживанию, видеоуроки, статьи по чип тюнингу, прошивкам. Процедура получения контента элементарная, достаточно просто скачать торрент файл и добавить его в загрузку в вашем торрент клиенте. Если у вас нет специального торрент клиента, вы можете его скачать у нас.