Great Teacher Onizuka Sub Indo Batch Eps 1-43 Lengkap | Green Green Sub Indo Batch Eps 1-12 + OVA Lengkap | Hikaru no Go Sub Indo Batch Eps 1-75 Lengkap

(Big Beat, Trip-Hop) Monkey Mafia - Shoot The Boss - 1998, FLAC (tracks+.cue), lossless 

Цитировать
Monkey Mafia - Shoot The Boss
Жанр: Big Beat, Trip-Hop
Год выпуска диска: 1998
Производитель диска: Heavenly / HVNLP 21CD
Аудио кодек: FLAC
Тип рипа: tracks+.cue
Битрейт аудио: lossless
Продолжительность: 01:12:33
Трэклист:
1 Make Jah Music (7:06)
2 Blow The Whole Joint Up (5:18)
3 I Am Fresh (4:49)
4 Lion In The Hall (5:34)
5 Steppa's Ball (5:52)
6 Work Mi Body (5:59)
7 Ward 10 (5:47)
8 The Whore of Babylon (8:32)
9 Metro Love (5:23)
10 Healing of The Nation (5:57)
11 Retreat Wicked Man (5:56)
12 Long As I Can See The Light (6:07)
www.discogs.com/release/23769

Лог EAC

EAC extraction logfile from 25. December 2008, 13:24 for CDMonkey Mafia / Shoot The Boss
Used drive : HL-DT-STDVD-RAM GSA-H55L Adapter: 1 ID: 0Read mode : Secure with NO C2, accurate stream, disable cacheRead offset correction : 102Overread into Lead-In and Lead-Out : No
Used output format : C:\Program Files\FLAC\flac.exe (User Defined Encoder) 320 kBit/s Additional command line options : -8 -V -T "artist=%a" -T "title=%t" -T "album=%g" -T "date=%y" -T "tracknumber=%n" -T "genre=%m" %s
Other options : Fill up missing offset samples with silence : Yes Delete leading and trailing silent blocks : No Installed external ASPI interface
Track 1 Filename C:\Documents and Settings\Linda\My Documents\My Videos\EAC#\Monkey Mafia - 1998 - Shoot The Boss\ 01 - Make Jah Music.wav
Pre-gap length 0:00:02.30
Peak level 96.2 % Track quality 100.0 % Test CRC 0FD8EA3D Copy CRC 0FD8EA3D Copy OK
Track 2 Filename C:\Documents and Settings\Linda\My Documents\My Videos\EAC#\Monkey Mafia - 1998 - Shoot The Boss\ 02 - Blow The Whole Joint Up (Coughing Up Fire Mix).wav
Peak level 96.1 % Track quality 99.9 % Test CRC 0348BA6E Copy CRC 0348BA6E Copy OK
Track 3 Filename C:\Documents and Settings\Linda\My Documents\My Videos\EAC#\Monkey Mafia - 1998 - Shoot The Boss\ 03 - I Am Fresh.wav
Peak level 96.2 % Track quality 100.0 % Test CRC 239B0488 Copy CRC 239B0488 Copy OK
Track 4 Filename C:\Documents and Settings\Linda\My Documents\My Videos\EAC#\Monkey Mafia - 1998 - Shoot The Boss\ 04 - Lion In The Hall (Beats Edit).wav
Peak level 94.4 % Track quality 100.0 % Test CRC B7B9A46F Copy CRC B7B9A46F Copy OK
Track 5 Filename C:\Documents and Settings\Linda\My Documents\My Videos\EAC#\Monkey Mafia - 1998 - Shoot The Boss\ 05 - Steppa's Ball.wav
Peak level 96.4 % Track quality 100.0 % Test CRC 39993013 Copy CRC 39993013 Copy OK
Track 6 Filename C:\Documents and Settings\Linda\My Documents\My Videos\EAC#\Monkey Mafia - 1998 - Shoot The Boss\ 06 - Work Mi Body (Chicken Scratch Mix).wav
Peak level 93.7 % Track quality 100.0 % Test CRC 18A30CEE Copy CRC 18A30CEE Copy OK
Track 7 Filename C:\Documents and Settings\Linda\My Documents\My Videos\EAC#\Monkey Mafia - 1998 - Shoot The Boss\ 07 - Ward 10 (Voodoo Mix).wav
Peak level 96.1 % Track quality 100.0 % Test CRC 22463EA7 Copy CRC 22463EA7 Copy OK
Track 8 Filename C:\Documents and Settings\Linda\My Documents\My Videos\EAC#\Monkey Mafia - 1998 - Shoot The Boss\ 08 - The Whore Of Babylon.wav
Peak level 96.1 % Track quality 100.0 % Test CRC 2DE384AD Copy CRC 2DE384AD Copy OK
Track 9 Filename C:\Documents and Settings\Linda\My Documents\My Videos\EAC#\Monkey Mafia - 1998 - Shoot The Boss\ 09 - Metro Love.wav
Peak level 95.1 % Track quality 99.9 % Test CRC 1B31B057 Copy CRC 1B31B057 Copy OK
Track 10 Filename C:\Documents and Settings\Linda\My Documents\My Videos\EAC#\Monkey Mafia - 1998 - Shoot The Boss\ 10 - Healing Of The Nation.wav
Peak level 97.8 % Track quality 100.0 % Test CRC BDC94B14 Copy CRC BDC94B14 Copy OK
Track 11 Filename C:\Documents and Settings\Linda\My Documents\My Videos\EAC#\Monkey Mafia - 1998 - Shoot The Boss\ 11 - Retreat Wicked Man.wav
Peak level 95.4 % Track quality 100.0 % Test CRC 0EDA9CA1 Copy CRC 0EDA9CA1 Copy OK
Track 12 Filename C:\Documents and Settings\Linda\My Documents\My Videos\EAC#\Monkey Mafia - 1998 - Shoot The Boss\ 12 - Long As I Can See The Light.wav
Peak level 95.1 % Track quality 100.0 % Test CRC 541B335F Copy CRC 541B335F Copy OK
No errors occured
End of status report

Лог Audiochecker

01 -===- F:\what\Monkey Mafia - 1998 - Shoot The Boss\ 01 - Make Jah Music.flac  Extracted successfully  Conclusion: this track is CDDA with probability 100%  Tempfile successfully deleted.
02 -===- F:\what\Monkey Mafia - 1998 - Shoot The Boss\ 02 - Blow The Whole Joint Up (Coughing Up Fire Mix).flac Extracted successfully Conclusion: this track is CDDA with probability 100% Tempfile successfully deleted.
03 -===- F:\what\Monkey Mafia - 1998 - Shoot The Boss\ 03 - I Am Fresh.flac Extracted successfully Conclusion: this track is CDDA with probability 100% Tempfile successfully deleted.
04 -===- F:\what\Monkey Mafia - 1998 - Shoot The Boss\ 04 - Lion In The Hall (Beats Edit).flac Extracted successfully Conclusion: this track is CDDA with probability 100% Tempfile successfully deleted.
05 -===- F:\what\Monkey Mafia - 1998 - Shoot The Boss\ 05 - Steppa's Ball.flac Extracted successfully Conclusion: this track is CDDA with probability 100% Tempfile successfully deleted.
06 -===- F:\what\Monkey Mafia - 1998 - Shoot The Boss\ 06 - Work Mi Body (Chicken Scratch Mix).flac Extracted successfully Conclusion: this track is CDDA with probability 100% Tempfile successfully deleted.
07 -===- F:\what\Monkey Mafia - 1998 - Shoot The Boss\ 07 - Ward 10 (Voodoo Mix).flac Extracted successfully Conclusion: this track is CDDA with probability 100% Tempfile successfully deleted.
08 -===- F:\what\Monkey Mafia - 1998 - Shoot The Boss\ 08 - The Whore Of Babylon.flac Extracted successfully Conclusion: this track is CDDA with probability 100% Tempfile successfully deleted.
09 -===- F:\what\Monkey Mafia - 1998 - Shoot The Boss\ 09 - Metro Love.flac Extracted successfully Conclusion: this track is CDDA with probability 100% Tempfile successfully deleted.
10 -===- F:\what\Monkey Mafia - 1998 - Shoot The Boss\ 10 - Healing Of The Nation.flac Extracted successfully Conclusion: this track is CDDA with probability 100% Tempfile successfully deleted.
11 -===- F:\what\Monkey Mafia - 1998 - Shoot The Boss\ 11 - Retreat Wicked Man.flac Extracted successfully Conclusion: this track is CDDA with probability 100% Tempfile successfully deleted.
12 -===- F:\what\Monkey Mafia - 1998 - Shoot The Boss\ 12 - Long As I Can See The Light.flac Extracted successfully Conclusion: this track is CDDA with probability 100% Tempfile successfully deleted.
С ваты
Вы не можете начинать темы
Вы не можете отвечать на сообщения
Вы не можете редактировать свои сообщения
Вы не можете удалять свои сообщения
Вы не можете голосовать в опросах
Вы не можете прикреплять файлы к сообщениям
Вы можете скачивать файлы
!ВНИМАНИЕ!

Сайт не предоставляет электронные версии произведений, а занимается лишь коллекционированием и каталогизацией ссылок, присылаемых и публикуемых на форуме нашими читателями. Если вы являетесь правообладателем какого-либо представленного материала и не желаете, чтобы ссылка на него находилась в нашем каталоге, свяжитесь с нами, и мы незамедлительно удалим ее. Файлы для обмена на трекере предоставлены пользователями сайта, и администрация не несет ответственности за их содержание. Просьба не заливать файлы, защищенные авторскими правами, а также файлы нелегального содержания!

Искали программы, игры, дополнения, музыка mp3, аниме, аудио книги, журналы? Добро пожаловать на свободный торрент трекер Torrents, у нас можно скачать бесплатно, без смс и регистрации и прочих ограничений лучшие, отборные сборки программ, игр. Скачать торрентом не составит труда даже не опытному пользователю. Раздачи ежедневно обновляются, только лучшие и качественные раздачи, подробные описания и скриншоты. Огромная коллекция программ для работы со звуком, графикой, дизайном, а так же множество плагинов и инструментов к ним с подробной инструкцией и рекомендациями. Прошивки для навигаторов, карты. Разнообразные игры, для Windows, Linux. В коллекцие есть и старые игры любых жанров, Rpg, Action, Shooter, strategy Множество дополнений, модификаций, сценариев для популярных игр в жанре экш, рпг, гонки, стратегии, логические игры. Множество аддонов и сценариев для Microsoft Flight Simulator Большая коллекция книг, учебников. Если нет возможности купить печатное издание - смело скачивайте цифровую версию книги или, быть может, журнала. Не любите читать - можно загрузить бесплатно аудикнигу. Для веб дизайнеров и программистов так же найдется множество специализированного софта, таких как: редакторы с подсветкой, среды программирования, компоненты, системы управления базами данных, разнообразные скрипты и шаблоны. Не так давно у нас появился материал для автолюбителей и владельцев мото - оригинальные и неоригинальные каталоги запчастей, книги и журналы по ремонту и обслуживанию, видеоуроки, статьи по чип тюнингу, прошивкам. Процедура получения контента элементарная, достаточно просто скачать торрент файл и добавить его в загрузку в вашем торрент клиенте. Если у вас нет специального торрент клиента, вы можете его скачать у нас.