Baki (2018) Episode 20 | Realms 2017 1080p WEB-DL DD5.1 H264-FGT | Virage Nord

(Breakbeat, Electro) Plump DJs - A Plump Night Out - 2000, FLAC (tracks+.cue), lossless 

Цитировать
Plump DJs - A Plump Night Out
Жанр: Breakbeat, Electro
Год выпуска диска: 2000
Производитель диска: Finger Lickin' Records / FLRCD002
Аудио кодек: FLAC
Тип рипа: tracks+.cue
Битрейт аудио: lossless
Продолжительность: 01:01:54
Трэклист:
1 Plump DJs - Intro
2 Pucker Up! - Pucker Up! (Plump's Remix)
3 Plump DJs - Electric Disco
4 Plump DJs - No Way
5 Elektronauts - Bumper (Plump's Remix)
6 Plump DJs - Fever
7 Plump DJs - The Push
8 War - Galaxy (Plump's Remix)
9 Freestylers - Here We Go (Plump's Remix)
10 Plump DJs - I'll Get You
11 Plump DJs - Move It With Your Mind
12 Plump DJs - Scram
www.discogs.com/release/111666

Лог EAC

EAC extraction logfile from 7. December 2007, 13:37 for CDPlump DJs / A Plump Night Out
Used drive : SONY CDRWDVD CRX310S Adapter: 0 ID: 1Read mode : Secure with NO C2, accurate stream, disable cacheRead offset correction : 6Overread into Lead-In and Lead-Out : No
Used output format : C:\Program Files\Exact Audio Copy\flac.exe (User Defined Encoder) 320 kBit/s Additional command line options : -V -8 -T "artist=%a" -T "title=%t" -T "album=%g" -T "date=%y" -T "tracknumber=%n" -T "genre=%m" %s
Other options : Fill up missing offset samples with silence : Yes Delete leading and trailing silent blocks : No Installed external ASPI interface
Track 1 Filename C:\EAC Rips\01 - Plump DJs - Intro.wav
Pre-gap length 0:00:02.00
Peak level 41.1 % Track quality 100.0 % Test CRC FD1DE6E6 Copy CRC FD1DE6E6 Copy OK
Track 2 Filename C:\EAC Rips\02 - Pucker Up - Pucker Up! (Plump's Remix).wav
Peak level 100.0 % Track quality 99.9 % Test CRC 58B5A82C Copy CRC 58B5A82C Copy OK
Track 3 Filename C:\EAC Rips\03 - Plump DJs - Electric Disco.wav
Peak level 98.9 % Track quality 100.0 % Test CRC 25916DBB Copy CRC 25916DBB Copy OK
Track 4 Filename C:\EAC Rips\04 - Plump DJs - No Way.wav
Peak level 100.0 % Track quality 100.0 % Test CRC 451E8081 Copy CRC 451E8081 Copy OK
Track 5 Filename C:\EAC Rips\05 - Elektronauts - Bumper ( Plump's Remix).wav
Peak level 99.5 % Track quality 100.0 % Test CRC 27FEC5D1 Copy CRC 27FEC5D1 Copy OK
Track 6 Filename C:\EAC Rips\06 - Plump DJs - Fever.wav
Peak level 98.1 % Track quality 100.0 % Test CRC D89F4A4A Copy CRC D89F4A4A Copy OK
Track 7 Filename C:\EAC Rips\07 - Plump DJs - The Push.wav
Peak level 99.9 % Track quality 100.0 % Test CRC B98F2D0F Copy CRC B98F2D0F Copy OK
Track 8 Filename C:\EAC Rips\08 - War - Galaxy (Plump's Remix).wav
Peak level 100.0 % Track quality 100.0 % Test CRC 141B90BF Copy CRC 141B90BF Copy OK
Track 9 Filename C:\EAC Rips\09 - Freestylers - Here We Go (Plump's Remix).wav
Peak level 98.8 % Track quality 100.0 % Test CRC 77DFF265 Copy CRC 77DFF265 Copy OK
Track 10 Filename C:\EAC Rips\10 - Plump DJs - I'll Get You.wav
Peak level 98.9 % Track quality 100.0 % Test CRC B90637E3 Copy CRC B90637E3 Copy OK
Track 11 Filename C:\EAC Rips\11 - Plump DJs - Move It With Your Mind.wav
Peak level 97.9 % Track quality 100.0 % Test CRC AB9B2385 Copy CRC AB9B2385 Copy OK
Track 12 Filename C:\EAC Rips\12 - Plump DJs - Scram.wav
Peak level 98.5 % Track quality 100.0 % Test CRC FEAF1677 Copy CRC FEAF1677 Copy OK
No errors occured
End of status report

Лог Audiochecker

01 -===- F:\what\Plump_DJs-A_Plump_Night_Out[2000][FLAC]\01 - Plump Djs - Intro.flac  Extracted successfully  Conclusion: this track is CDDA with probability 100%  Tempfile successfully deleted.
02 -===- F:\what\Plump_DJs-A_Plump_Night_Out[2000][FLAC]\02 - Pucker Up - Pucker Up! (Plump's Remix).flac Extracted successfully Conclusion: this track is CDDA with probability 100% Tempfile successfully deleted.
03 -===- F:\what\Plump_DJs-A_Plump_Night_Out[2000][FLAC]\03 - Plump Djs - Electric Disco.flac Extracted successfully Conclusion: this track is CDDA with probability 100% Tempfile successfully deleted.
04 -===- F:\what\Plump_DJs-A_Plump_Night_Out[2000][FLAC]\04 - Plump Djs - No Way.flac Extracted successfully Conclusion: this track is CDDA with probability 100% Tempfile successfully deleted.
05 -===- F:\what\Plump_DJs-A_Plump_Night_Out[2000][FLAC]\05 - Elektronauts - Bumper ( Plump's Remix).flac Extracted successfully Conclusion: this track is CDDA with probability 100% Tempfile successfully deleted.
06 -===- F:\what\Plump_DJs-A_Plump_Night_Out[2000][FLAC]\06 - Plump Djs - Fever.flac Extracted successfully Conclusion: this track is CDDA with probability 100% Tempfile successfully deleted.
07 -===- F:\what\Plump_DJs-A_Plump_Night_Out[2000][FLAC]\07 - Plump Djs - The Push.flac Extracted successfully Conclusion: this track is CDDA with probability 100% Tempfile successfully deleted.
08 -===- F:\what\Plump_DJs-A_Plump_Night_Out[2000][FLAC]\08 - War - Galaxy (Plump's Remix).flac Extracted successfully Conclusion: this track is CDDA with probability 100% Tempfile successfully deleted.
09 -===- F:\what\Plump_DJs-A_Plump_Night_Out[2000][FLAC]\09 - Freestylers - Here We Go (Plump's Remix).flac Extracted successfully Conclusion: this track is CDDA with probability 100% Tempfile successfully deleted.
10 -===- F:\what\Plump_DJs-A_Plump_Night_Out[2000][FLAC]\10 - Plump Djs - I'll Get you.flac Extracted successfully Conclusion: this track is CDDA with probability 100% Tempfile successfully deleted.
11 -===- F:\what\Plump_DJs-A_Plump_Night_Out[2000][FLAC]\11 - Plump Djs - Move it With your Mind.flac Extracted successfully Conclusion: this track is CDDA with probability 100% Tempfile successfully deleted.
12 -===- F:\what\Plump_DJs-A_Plump_Night_Out[2000][FLAC]\12 - Plump Djs - Scram.flac Extracted successfully Conclusion: this track is CDDA with probability 100% Tempfile successfully deleted.
Вы не можете начинать темы
Вы не можете отвечать на сообщения
Вы не можете редактировать свои сообщения
Вы не можете удалять свои сообщения
Вы не можете голосовать в опросах
Вы не можете прикреплять файлы к сообщениям
Вы можете скачивать файлы
!ВНИМАНИЕ!

Сайт не предоставляет электронные версии произведений, а занимается лишь коллекционированием и каталогизацией ссылок, присылаемых и публикуемых на форуме нашими читателями. Если вы являетесь правообладателем какого-либо представленного материала и не желаете, чтобы ссылка на него находилась в нашем каталоге, свяжитесь с нами, и мы незамедлительно удалим ее. Файлы для обмена на трекере предоставлены пользователями сайта, и администрация не несет ответственности за их содержание. Просьба не заливать файлы, защищенные авторскими правами, а также файлы нелегального содержания!

Искали программы, игры, дополнения, музыка mp3, аниме, аудио книги, журналы? Добро пожаловать на свободный торрент трекер Torrents, у нас можно скачать бесплатно, без смс и регистрации и прочих ограничений лучшие, отборные сборки программ, игр. Скачать торрентом не составит труда даже не опытному пользователю. Раздачи ежедневно обновляются, только лучшие и качественные раздачи, подробные описания и скриншоты. Огромная коллекция программ для работы со звуком, графикой, дизайном, а так же множество плагинов и инструментов к ним с подробной инструкцией и рекомендациями. Прошивки для навигаторов, карты. Разнообразные игры, для Windows, Linux. В коллекцие есть и старые игры любых жанров, Rpg, Action, Shooter, strategy Множество дополнений, модификаций, сценариев для популярных игр в жанре экш, рпг, гонки, стратегии, логические игры. Множество аддонов и сценариев для Microsoft Flight Simulator Большая коллекция книг, учебников. Если нет возможности купить печатное издание - смело скачивайте цифровую версию книги или, быть может, журнала. Не любите читать - можно загрузить бесплатно аудикнигу. Для веб дизайнеров и программистов так же найдется множество специализированного софта, таких как: редакторы с подсветкой, среды программирования, компоненты, системы управления базами данных, разнообразные скрипты и шаблоны. Не так давно у нас появился материал для автолюбителей и владельцев мото - оригинальные и неоригинальные каталоги запчастей, книги и журналы по ремонту и обслуживанию, видеоуроки, статьи по чип тюнингу, прошивкам. Процедура получения контента элементарная, достаточно просто скачать торрент файл и добавить его в загрузку в вашем торрент клиенте. Если у вас нет специального торрент клиента, вы можете его скачать у нас.