Regarder un film | Mr D S08E02 WEBRip x264-TBS[rarbg] | A Little Night ...

(Breakbeat) [CDS] Rhythm Corporation, Rolf Theo Schulte - West Motor Sound Circuit 1 - 2000?, FLAC (tracks+.cue), lossless 

Цитировать
Rhythm Corporation, Rolf Theo Schulte / West Motor Sound Circuit 1
Жанр: Breakbeat
Носитель: CDS
Год издания: 2000?
Издатель (лейбл): West
Номер по каталогу: RC 001
Аудиокодек: FLAC (*.flac)
Тип рипа: tracks+.cue
Битрейт аудио: lossless
Продолжительность: 14:27
Источник (релизер): собственный рип
Наличие сканов в содержимом раздачи: да
Треклист:
01. Rhythm Corporation , Rolf Theo Schulte - The Race (Original Version) [4:46]
02. Rhythm Corporation , Rolf Theo Schulte - The Race / Best Lap (On Air Version) [3:59]
03. Rhythm Corporation , Rolf Theo Schulte - The Race (4 To The Wheel Remix) [5:42]

Лог создания рипа

Exact Audio Copy V1.3 from 2. September 2016
EAC extraction logfile from 27. November 2017, 20:04
Rhythm Corporation & Rolf Theo Schulte / West Motor Sound Circuit 1
Used drive : ASUS DRW-24B5ST Adapter: 6 ID: 0
Read mode : SecureUtilize accurate stream : YesDefeat audio cache : YesMake use of C2 pointers : No
Read offset correction : 6Overread into Lead-In and Lead-Out : NoFill up missing offset samples with silence : YesDelete leading and trailing silent blocks : NoNull samples used in CRC calculations : YesUsed interface : Installed external ASPI interfaceGap handling : Appended to previous track
Used output format : User Defined EncoderSelected bitrate : 128 kBit/sQuality : HighAdd ID3 tag : NoCommand line compressor : D:\flac-1.3.2-win\win64\flac.exeAdditional command line options : -8 -V -T "ARTIST=%artist%" -T "TITLE=%title%" -T "ALBUM=%albumtitle%" -T "DATE=%year%" -T "TRACKNUMBER=%tracknr%" -T "GENRE=%genre%" -T "COMMENT=ripped by Andy aka yetiisyou" %source%
TOC of the extracted CD
Track | Start | Length | Start sector | End sector --------------------------------------------------------- 1 | 0:00.00 | 4:45.62 | 0 | 21436 2 | 4:45.62 | 3:59.25 | 21437 | 39386 3 | 8:45.12 | 5:41.55 | 39387 | 65016
Track 1
Filename E:\!Ripped by Andy aka yetiisyou\Rhythm Corporation & Rolf Theo Schulte - West Motor Sound Circuit 1 [RC 001]\01. Rhythm Corporation & Rolf Theo Schulte - Original Version.wav
Pre-gap length 0:00:02.00
Peak level 97.3 % Extraction speed 2.2 X Track quality 99.9 % Test CRC 41ECC78F Copy CRC 41ECC78F Accurately ripped (confidence 1) [0AD3E039] (AR v2) Copy OK
Track 2
Filename E:\!Ripped by Andy aka yetiisyou\Rhythm Corporation & Rolf Theo Schulte - West Motor Sound Circuit 1 [RC 001]\02. Rhythm Corporation & Rolf Theo Schulte - On Air Version.wav
Pre-gap length 0:00:02.47
Peak level 96.9 % Extraction speed 2.9 X Track quality 100.0 % Test CRC C53B6511 Copy CRC C53B6511 Accurately ripped (confidence 1) [46D655C9] (AR v2) Copy OK
Track 3
Filename E:\!Ripped by Andy aka yetiisyou\Rhythm Corporation & Rolf Theo Schulte - West Motor Sound Circuit 1 [RC 001]\03. Rhythm Corporation & Rolf Theo Schulte - 4 To The Wheel Remix.wav
Pre-gap length 0:00:03.40
Peak level 96.7 % Extraction speed 3.4 X Track quality 100.0 % Test CRC 86C3E35D Copy CRC 86C3E35D Accurately ripped (confidence 1) [22D78772] (AR v2) Copy OK
All tracks accurately ripped
No errors occurred
End of status report
---- CUETools DB Plugin V2.1.6
[CTDB TOCID: fVN7bAyOxJBC1GVbmAJt9cJxyZ4-] foundSubmit result: fVN7bAyOxJBC1GVbmAJt9cJxyZ4- has been confirmedTrack | CTDB Status 1 | (1/1) Accurately ripped 2 | (1/1) Accurately ripped 3 | (1/1) Accurately ripped
==== Log checksum D4B15B5C1916499B09F85FBF539EB4D3C9B4B10742338B25D65666A8640C8EC2 ====

Содержание индексной карты (.CUE)

REM GENRE OtherREM DISCID 21036203REM COMMENT "ExactAudioCopy v1.3"PERFORMER "Rhythm Corporation & Rolf Theo Schulte"TITLE "West Motor Sound Circuit 1"REM COMPOSER ""FILE "01. Rhythm Corporation & Rolf Theo Schulte - Original Version.wav" WAVE  TRACK 01 AUDIO    TITLE "Original Version"    PERFORMER "Rhythm Corporation & Rolf Theo Schulte"    REM COMPOSER ""    INDEX 01 00:00:00  TRACK 02 AUDIO    TITLE "On Air Version"    PERFORMER "Rhythm Corporation & Rolf Theo Schulte"    REM COMPOSER ""    INDEX 00 04:43:15FILE "02. Rhythm Corporation & Rolf Theo Schulte - On Air Version.wav" WAVE    INDEX 01 00:00:00  TRACK 03 AUDIO    TITLE "4 To The Wheel Remix"    PERFORMER "Rhythm Corporation & Rolf Theo Schulte"    REM COMPOSER ""    INDEX 00 03:55:60FILE "03. Rhythm Corporation & Rolf Theo Schulte - 4 To The Wheel Remix.wav" WAVE    INDEX 01 00:00:00
Вы не можете начинать темы
Вы не можете отвечать на сообщения
Вы не можете редактировать свои сообщения
Вы не можете удалять свои сообщения
Вы не можете голосовать в опросах
Вы не можете прикреплять файлы к сообщениям
Вы можете скачивать файлы
!ВНИМАНИЕ!

Сайт не предоставляет электронные версии произведений, а занимается лишь коллекционированием и каталогизацией ссылок, присылаемых и публикуемых на форуме нашими читателями. Если вы являетесь правообладателем какого-либо представленного материала и не желаете, чтобы ссылка на него находилась в нашем каталоге, свяжитесь с нами, и мы незамедлительно удалим ее. Файлы для обмена на трекере предоставлены пользователями сайта, и администрация не несет ответственности за их содержание. Просьба не заливать файлы, защищенные авторскими правами, а также файлы нелегального содержания!

Искали программы, игры, дополнения, музыка mp3, аниме, аудио книги, журналы? Добро пожаловать на свободный торрент трекер Torrents, у нас можно скачать бесплатно, без смс и регистрации и прочих ограничений лучшие, отборные сборки программ, игр. Скачать торрентом не составит труда даже не опытному пользователю. Раздачи ежедневно обновляются, только лучшие и качественные раздачи, подробные описания и скриншоты. Огромная коллекция программ для работы со звуком, графикой, дизайном, а так же множество плагинов и инструментов к ним с подробной инструкцией и рекомендациями. Прошивки для навигаторов, карты. Разнообразные игры, для Windows, Linux. В коллекцие есть и старые игры любых жанров, Rpg, Action, Shooter, strategy Множество дополнений, модификаций, сценариев для популярных игр в жанре экш, рпг, гонки, стратегии, логические игры. Множество аддонов и сценариев для Microsoft Flight Simulator Большая коллекция книг, учебников. Если нет возможности купить печатное издание - смело скачивайте цифровую версию книги или, быть может, журнала. Не любите читать - можно загрузить бесплатно аудикнигу. Для веб дизайнеров и программистов так же найдется множество специализированного софта, таких как: редакторы с подсветкой, среды программирования, компоненты, системы управления базами данных, разнообразные скрипты и шаблоны. Не так давно у нас появился материал для автолюбителей и владельцев мото - оригинальные и неоригинальные каталоги запчастей, книги и журналы по ремонту и обслуживанию, видеоуроки, статьи по чип тюнингу, прошивкам. Процедура получения контента элементарная, достаточно просто скачать торрент файл и добавить его в загрузку в вашем торрент клиенте. Если у вас нет специального торрент клиента, вы можете его скачать у нас.