Jack Strong FRENCH BluRay 720p 2018 | Télécharger | Тиба Сёя

(Breakbet, Electro) [CD] Da Boogie - We Don\'t Stop - 1998, FLAC (tracks+.cue), lossless 

Цитировать
Da Boogie / We Don't Stop
Жанр: Breakbet, Electro
Носитель: CD
Год издания: 1998
Издатель (лейбл): Epidrome
Номер по каталогу: EPD 665799 2
Аудиокодек: FLAC (*.flac)
Тип рипа: tracks+.cue
Битрейт аудио: lossless
Продолжительность: 16:17
Источник (релизер): собственный рип
Наличие сканов в содержимом раздачи: да
Треклист:
01. Da Boogie - We Don't Stop (Radio Edit) [3:53]
02. Da Boogie - We Don't Stop (Extended) [6:12]
03. Da Boogie - We Don't Stop (Club Mix) [6:12]

Лог создания рипа

Exact Audio Copy V1.3 from 2. September 2016
EAC extraction logfile from 9. December 2017, 22:46
Da Boogie / We Don't Stop
Used drive : ASUS SDRW-08D2S-U Adapter: 9 ID: 0
Read mode : SecureUtilize accurate stream : YesDefeat audio cache : YesMake use of C2 pointers : No
Read offset correction : 6Overread into Lead-In and Lead-Out : NoFill up missing offset samples with silence : YesDelete leading and trailing silent blocks : NoNull samples used in CRC calculations : YesUsed interface : Installed external ASPI interfaceGap handling : Appended to previous track
Used output format : User Defined EncoderSelected bitrate : 128 kBit/sQuality : HighAdd ID3 tag : NoCommand line compressor : D:\flac-1.3.2-win\win64\flac.exeAdditional command line options : -8 -V -T "ARTIST=%artist%" -T "TITLE=%title%" -T "ALBUM=%albumtitle%" -T "DATE=%year%" -T "TRACKNUMBER=%tracknr%" -T "GENRE=%genre%" -T "COMMENT=ripped by Andy aka yetiisyou" %source%
TOC of the extracted CD
Track | Start | Length | Start sector | End sector --------------------------------------------------------- 1 | 0:00.00 | 3:53.25 | 0 | 17499 2 | 3:53.25 | 6:12.25 | 17500 | 45424 3 | 10:05.50 | 6:11.42 | 45425 | 73291
Track 1
Filename E:\!Ripped by Andy aka yetiisyou\Da Boogie - We Don't Stop [EPD 665799 2] [1998]\01. Da Boogie - We Don't Stop (Radio Edit).wav
Pre-gap length 0:00:02.00
Peak level 98.4 % Extraction speed 2.6 X Track quality 100.0 % Test CRC 503D4EFB Copy CRC 503D4EFB Track not present in AccurateRip database Copy OK
Track 2
Filename E:\!Ripped by Andy aka yetiisyou\Da Boogie - We Don't Stop [EPD 665799 2] [1998]\02. Da Boogie - We Don't Stop (Extended).wav
Pre-gap length 0:00:01.13
Peak level 98.3 % Extraction speed 3.2 X Track quality 100.0 % Test CRC BB5F4B06 Copy CRC BB5F4B06 Track not present in AccurateRip database Copy OK
Track 3
Filename E:\!Ripped by Andy aka yetiisyou\Da Boogie - We Don't Stop [EPD 665799 2] [1998]\03. Da Boogie - We Don't Stop (Club Mix).wav
Pre-gap length 0:00:01.25
Peak level 98.3 % Extraction speed 3.6 X Track quality 100.0 % Test CRC F24A2E56 Copy CRC F24A2E56 Track not present in AccurateRip database Copy OK
None of the tracks are present in the AccurateRip database
No errors occurred
End of status report
---- CUETools DB Plugin V2.1.6
[CTDB TOCID: 71_rrSvcZWL.vMKeei7AJWwg07I-] disk not present in databaseSubmit result: 71_rrSvcZWL.vMKeei7AJWwg07I- has been uploaded
==== Log checksum 70CF0EBD60CA673014E22252375D92806AB4A4FACCED8A45257FB29FB8E82852 ====

Содержание индексной карты (.CUE)

REM DATE 1998REM DISCID 1903D103REM COMMENT "ExactAudioCopy v1.3"CATALOG 0000000000000PERFORMER "Da Boogie"TITLE "We Don't Stop"REM COMPOSER ""FILE "01. Da Boogie - We Don't Stop (Radio Edit).wav" WAVE  TRACK 01 AUDIO    TITLE "We Don't Stop (Radio Edit)"    PERFORMER "Da Boogie"    REM COMPOSER ""    ISRC DEE869800433    INDEX 01 00:00:00  TRACK 02 AUDIO    TITLE "We Don't Stop (Extended)"    PERFORMER "Da Boogie"    REM COMPOSER ""    ISRC DEE869800434    INDEX 00 03:52:12FILE "02. Da Boogie - We Don't Stop (Extended).wav" WAVE    INDEX 01 00:00:00  TRACK 03 AUDIO    TITLE "We Don't Stop (Club Mix)"    PERFORMER "Da Boogie"    REM COMPOSER ""    ISRC DEE869800435    INDEX 00 06:11:00FILE "03. Da Boogie - We Don't Stop (Club Mix).wav" WAVE    INDEX 01 00:00:00
Вы не можете начинать темы
Вы не можете отвечать на сообщения
Вы не можете редактировать свои сообщения
Вы не можете удалять свои сообщения
Вы не можете голосовать в опросах
Вы не можете прикреплять файлы к сообщениям
Вы можете скачивать файлы
!ВНИМАНИЕ!

Сайт не предоставляет электронные версии произведений, а занимается лишь коллекционированием и каталогизацией ссылок, присылаемых и публикуемых на форуме нашими читателями. Если вы являетесь правообладателем какого-либо представленного материала и не желаете, чтобы ссылка на него находилась в нашем каталоге, свяжитесь с нами, и мы незамедлительно удалим ее. Файлы для обмена на трекере предоставлены пользователями сайта, и администрация не несет ответственности за их содержание. Просьба не заливать файлы, защищенные авторскими правами, а также файлы нелегального содержания!

Искали программы, игры, дополнения, музыка mp3, аниме, аудио книги, журналы? Добро пожаловать на свободный торрент трекер Torrents, у нас можно скачать бесплатно, без смс и регистрации и прочих ограничений лучшие, отборные сборки программ, игр. Скачать торрентом не составит труда даже не опытному пользователю. Раздачи ежедневно обновляются, только лучшие и качественные раздачи, подробные описания и скриншоты. Огромная коллекция программ для работы со звуком, графикой, дизайном, а так же множество плагинов и инструментов к ним с подробной инструкцией и рекомендациями. Прошивки для навигаторов, карты. Разнообразные игры, для Windows, Linux. В коллекцие есть и старые игры любых жанров, Rpg, Action, Shooter, strategy Множество дополнений, модификаций, сценариев для популярных игр в жанре экш, рпг, гонки, стратегии, логические игры. Множество аддонов и сценариев для Microsoft Flight Simulator Большая коллекция книг, учебников. Если нет возможности купить печатное издание - смело скачивайте цифровую версию книги или, быть может, журнала. Не любите читать - можно загрузить бесплатно аудикнигу. Для веб дизайнеров и программистов так же найдется множество специализированного софта, таких как: редакторы с подсветкой, среды программирования, компоненты, системы управления базами данных, разнообразные скрипты и шаблоны. Не так давно у нас появился материал для автолюбителей и владельцев мото - оригинальные и неоригинальные каталоги запчастей, книги и журналы по ремонту и обслуживанию, видеоуроки, статьи по чип тюнингу, прошивкам. Процедура получения контента элементарная, достаточно просто скачать торрент файл и добавить его в загрузку в вашем торрент клиенте. Если у вас нет специального торрент клиента, вы можете его скачать у нас.