Great Teacher Onizuka Sub Indo Batch Eps 1-43 Lengkap | Green Green Sub Indo Batch Eps 1-12 + OVA Lengkap | Hikaru no Go Sub Indo Batch Eps 1-75 Lengkap

(Breakbeat, Breaks, Dub) [CD] VA - DJ Doom - Breakadelica 3 - 2006, FLAC (image+.cue), lossless 

Цитировать
DJ Doom - Breakadelica 3
Жанр: Breakbeat, Breaks, Dub
Носитель: CD
Год издания: 2006
Издатель (лейбл): Presound
Номер по каталогу: PS-049
Аудиокодек: FLAC (*.flac)
Тип рипа: image+.cue
Битрейт аудио: lossless
Продолжительность: 55:50
Источник (релизер): собственный рип
Наличие сканов в содержимом раздачи: да
Треклист:
01. Vigi - Love (Left Leg Mix) [6:57]
02. Unknown Artist - Untitled [4:56]
03. Unknown Artist - Untitled [5:40]
04. Unknown Artist - Untitled [5:51]
05. DeiBeat - We Rock The Party (Circuit Breaker Remix) [5:28]
06. The (An)Architects - Rock Is My DJ (Myagi Remix) [4:54]
07. Bread & Butter - Starsky & Hutch [6:03]
08. Rogue Element - Back Breaker [6:16]
09. Angel Farringdon - Critical [4:40]
10. Unknown Artist - Untitled [5:06]

Лог создания рипа

Exact Audio Copy V1.3 from 2. September 2016
EAC extraction logfile from 19. December 2017, 22:39
DJ Doom / Breakadelica 3
Used drive : ASUS DRW-24B5ST Adapter: 6 ID: 0
Read mode : SecureUtilize accurate stream : YesDefeat audio cache : YesMake use of C2 pointers : No
Read offset correction : 6Overread into Lead-In and Lead-Out : NoFill up missing offset samples with silence : YesDelete leading and trailing silent blocks : NoNull samples used in CRC calculations : YesUsed interface : Installed external ASPI interface
Used output format : User Defined EncoderSelected bitrate : 128 kBit/sQuality : HighAdd ID3 tag : NoCommand line compressor : D:\flac-1.3.2-win\win64\flac.exeAdditional command line options : -V -8 -T "Date=%year%" -T "COMMENT=ripped by Andy aka yetiisyou" -T "Genre=%genre%" %source%
TOC of the extracted CD
Track | Start | Length | Start sector | End sector --------------------------------------------------------- 1 | 0:00.00 | 6:57.06 | 0 | 31280 2 | 6:57.06 | 4:55.56 | 31281 | 53461 3 | 11:52.62 | 5:39.43 | 53462 | 78929 4 | 17:32.30 | 5:50.50 | 78930 | 105229 5 | 23:23.05 | 5:27.62 | 105230 | 129816 6 | 28:50.67 | 4:54.18 | 129817 | 151884 7 | 33:45.10 | 6:03.32 | 151885 | 179141 8 | 39:48.42 | 6:15.70 | 179142 | 207336 9 | 46:04.37 | 4:40.16 | 207337 | 228352 10 | 50:44.53 | 5:05.53 | 228353 | 251280
Range status and errors
Selected range
Filename E:\!Ripped by Andy aka yetiisyou\VA - DJ Doom - Breakadelica 3 [PS-049] [2006]\DJ Doom - Breakadelica 3.wav
Peak level 74.5 % Extraction speed 6.3 X Range quality 100.0 % Test CRC 41085CC0 Copy CRC 41085CC0 Copy OK
No errors occurred
AccurateRip summary
Track 1 not present in databaseTrack 2 not present in databaseTrack 3 not present in databaseTrack 4 not present in databaseTrack 5 not present in databaseTrack 6 not present in databaseTrack 7 not present in databaseTrack 8 not present in databaseTrack 9 not present in databaseTrack 10 not present in database
None of the tracks are present in the AccurateRip database
End of status report
---- CUETools DB Plugin V2.1.6
[CTDB TOCID: xWhICTGg7hgYfJxHDvcYCqr5rUE-] disk not present in databaseSubmit result: xWhICTGg7hgYfJxHDvcYCqr5rUE- has been uploaded
==== Log checksum 813E8DEFC9F3D666A6CF8C062146AE26D27E03E88C9B1C3C9D9165D2490C6C86 ====

Содержание индексной карты (.CUE)

REM DATE 2006REM DISCID 780D160AREM COMMENT "ExactAudioCopy v1.3"PERFORMER "DJ Doom"TITLE "Breakadelica 3"REM COMPOSER ""FILE "DJ Doom - Breakadelica 3.flac" WAVE  TRACK 01 AUDIO    TITLE "Love (Left Leg Mix)"    PERFORMER "Vigi"    REM COMPOSER ""    FLAGS DCP    INDEX 01 00:00:00  TRACK 02 AUDIO    TITLE "Untitled"    PERFORMER "Unknown Artist"    REM COMPOSER ""    FLAGS DCP    INDEX 01 06:57:06  TRACK 03 AUDIO    TITLE "Untitled"    PERFORMER "Unknown Artist"    REM COMPOSER ""    FLAGS DCP    INDEX 01 11:52:62  TRACK 04 AUDIO    TITLE "Untitled"    PERFORMER "Unknown Artist"    REM COMPOSER ""    FLAGS DCP    INDEX 01 17:32:30  TRACK 05 AUDIO    TITLE "We Rock The Party (Circuit Breaker Remix)"    PERFORMER "DeiBeat"    REM COMPOSER ""    FLAGS DCP    INDEX 01 23:23:05  TRACK 06 AUDIO    TITLE "Rock Is My DJ (Myagi Remix)"    PERFORMER "The (An)Architects"    REM COMPOSER ""    FLAGS DCP    INDEX 01 28:50:67  TRACK 07 AUDIO    TITLE "Starsky & Hutch"    PERFORMER "Bread & Butter"    REM COMPOSER ""    FLAGS DCP    INDEX 01 33:45:10  TRACK 08 AUDIO    TITLE "Back Breaker"    PERFORMER "Rogue Element"    REM COMPOSER ""    FLAGS DCP    INDEX 01 39:48:42  TRACK 09 AUDIO    TITLE "Critical"    PERFORMER "Angel Farringdon"    REM COMPOSER ""    FLAGS DCP    INDEX 01 46:04:37  TRACK 10 AUDIO    TITLE "Untitled"    PERFORMER "Unknown Artist"    REM COMPOSER ""    FLAGS DCP    INDEX 01 50:44:53
Вы не можете начинать темы
Вы не можете отвечать на сообщения
Вы не можете редактировать свои сообщения
Вы не можете удалять свои сообщения
Вы не можете голосовать в опросах
Вы не можете прикреплять файлы к сообщениям
Вы можете скачивать файлы
!ВНИМАНИЕ!

Сайт не предоставляет электронные версии произведений, а занимается лишь коллекционированием и каталогизацией ссылок, присылаемых и публикуемых на форуме нашими читателями. Если вы являетесь правообладателем какого-либо представленного материала и не желаете, чтобы ссылка на него находилась в нашем каталоге, свяжитесь с нами, и мы незамедлительно удалим ее. Файлы для обмена на трекере предоставлены пользователями сайта, и администрация не несет ответственности за их содержание. Просьба не заливать файлы, защищенные авторскими правами, а также файлы нелегального содержания!

Искали программы, игры, дополнения, музыка mp3, аниме, аудио книги, журналы? Добро пожаловать на свободный торрент трекер Torrents, у нас можно скачать бесплатно, без смс и регистрации и прочих ограничений лучшие, отборные сборки программ, игр. Скачать торрентом не составит труда даже не опытному пользователю. Раздачи ежедневно обновляются, только лучшие и качественные раздачи, подробные описания и скриншоты. Огромная коллекция программ для работы со звуком, графикой, дизайном, а так же множество плагинов и инструментов к ним с подробной инструкцией и рекомендациями. Прошивки для навигаторов, карты. Разнообразные игры, для Windows, Linux. В коллекцие есть и старые игры любых жанров, Rpg, Action, Shooter, strategy Множество дополнений, модификаций, сценариев для популярных игр в жанре экш, рпг, гонки, стратегии, логические игры. Множество аддонов и сценариев для Microsoft Flight Simulator Большая коллекция книг, учебников. Если нет возможности купить печатное издание - смело скачивайте цифровую версию книги или, быть может, журнала. Не любите читать - можно загрузить бесплатно аудикнигу. Для веб дизайнеров и программистов так же найдется множество специализированного софта, таких как: редакторы с подсветкой, среды программирования, компоненты, системы управления базами данных, разнообразные скрипты и шаблоны. Не так давно у нас появился материал для автолюбителей и владельцев мото - оригинальные и неоригинальные каталоги запчастей, книги и журналы по ремонту и обслуживанию, видеоуроки, статьи по чип тюнингу, прошивкам. Процедура получения контента элементарная, достаточно просто скачать торрент файл и добавить его в загрузку в вашем торрент клиенте. Если у вас нет специального торрент клиента, вы можете его скачать у нас.