Microsoft Azure Developer Managing Code Reviews with VSTS | Thugs of Hindostan (2018) Hindi - 720p - Pre-DVDRip - x264 - 1.4GB - Mp3 - MovCr | [すたーきー]二次元コミックマガジン 男の娘を尻穴快楽でメス堕ち陵辱!Vol.1

(Electro, Breaks, Big Beat) [2xCD] VA - Dj Vada + Dj Mazai - Stepтусин volume 2 - 2008, FLAC (image+.cue), lossless 

Цитировать
Dj Vada + Dj Mazai - Stepтусин volume 2
Жанр: Electro, Breaks, Big Beat
Носитель: CD
Год издания: 2008
Издатель (лейбл): Macrovision
Номер по каталогу: MV-249
Аудиокодек: FLAC (*.flac)
Тип рипа: image+.cue
Битрейт аудио: lossless
Продолжительность: 02:04:11
Источник (релизер): собственный рип
Наличие сканов в содержимом раздачи: да
Треклист:
CD 1
01. Dj Mazai - Stepтусин volume 2 [6:23]
02. Dj Mazai - Stepтусин volume 2 [2:56]
03. Dj Mazai - Stepтусин volume 2 [5:09]
04. Dj Mazai - Stepтусин volume 2 [6:10]
05. Dj Mazai - Stepтусин volume 2 [2:56]
06. Dj Mazai - Stepтусин volume 2 [5:09]
07. Dj Mazai - Stepтусин volume 2 [3:54]
08. Dj Mazai - Stepтусин volume 2 [3:25]
09. Dj Mazai - Stepтусин volume 2 [3:58]
10. Dj Mazai - Stepтусин volume 2 [5:18]
11. Dj Mazai - Stepтусин volume 2 [5:22]
12. Dj Mazai - Stepтусин volume 2 [4:57]
13. Dj Mazai - Stepтусин volume 2 [3:40]
14. Dj Mazai - Stepтусин volume 2 [4:10]
CD 2
01. Dj Vada - Stepтусин volume 2 [2:48]
02. Dj Vada - Stepтусин volume 2 [1:59]
03. Dj Vada - Stepтусин volume 2 [1:45]
04. Dj Vada - Stepтусин volume 2 [2:58]
05. Dj Vada - Stepтусин volume 2 [6:03]
06. Dj Vada - Stepтусин volume 2 [4:06]
07. Dj Vada - Stepтусин volume 2 [2:12]
08. Dj Vada - Stepтусин volume 2 [3:45]
09. Dj Vada - Stepтусин volume 2 [3:07]
10. Dj Vada - Stepтусин volume 2 [2:55]
11. Dj Vada - Stepтусин volume 2 [3:16]
12. Dj Vada - Stepтусин volume 2 [2:45]
13. Dj Vada - Stepтусин volume 2 [3:48]
14. Dj Vada - Stepтусин volume 2 [1:28]
15. Dj Vada - Stepтусин volume 2 [2:20]
16. Dj Vada - Stepтусин volume 2 [2:20]
17. Dj Vada - Stepтусин volume 2 [3:02]
18. Dj Vada - Stepтусин volume 2 [1:24]
19. Dj Vada - Stepтусин volume 2 [1:57]
20. Dj Vada - Stepтусин volume 2 [2:43]
21. Dj Vada - Stepтусин volume 2 [4:04]

logs and sheets

Log EAC CD 1

Exact Audio Copy V1.3 from 2. September 2016
EAC extraction logfile from 10. June 2017, 20:45
Dj Vada / Stepтусин volume 2
Used drive : ASUS DRW-24B5ST Adapter: 6 ID: 0
Read mode : SecureUtilize accurate stream : YesDefeat audio cache : YesMake use of C2 pointers : No
Read offset correction : 6Overread into Lead-In and Lead-Out : NoFill up missing offset samples with silence : YesDelete leading and trailing silent blocks : NoNull samples used in CRC calculations : YesUsed interface : Installed external ASPI interface
Used output format : User Defined EncoderSelected bitrate : 128 kBit/sQuality : HighAdd ID3 tag : NoCommand line compressor : D:\flac-1.3.2-win\win64\flac.exeAdditional command line options : -V -8 -T "Date=%year%" -T "COMMENT=ripped by Andy aka yetiisyou" -T "Genre=%genre%" %source%
TOC of the extracted CD
Track | Start | Length | Start sector | End sector --------------------------------------------------------- 1 | 0:00.00 | 2:47.74 | 0 | 12598 2 | 2:47.74 | 1:58.60 | 12599 | 21508 3 | 4:46.59 | 1:44.46 | 21509 | 29354 4 | 6:31.30 | 2:58.07 | 29355 | 42711 5 | 9:29.37 | 6:02.38 | 42712 | 69899 6 | 15:32.00 | 4:05.74 | 69900 | 88348 7 | 19:37.74 | 2:12.01 | 88349 | 98249 8 | 21:50.00 | 3:45.19 | 98250 | 115143 9 | 25:35.19 | 3:07.25 | 115144 | 129193 10 | 28:42.44 | 2:55.24 | 129194 | 142342 11 | 31:37.68 | 3:16.06 | 142343 | 157048 12 | 34:53.74 | 2:44.51 | 157049 | 169399 13 | 37:38.50 | 3:47.47 | 169400 | 186471 14 | 41:26.22 | 1:27.52 | 186472 | 193048 15 | 42:53.74 | 2:20.01 | 193049 | 203549 16 | 45:14.00 | 2:20.11 | 203550 | 214060 17 | 47:34.11 | 3:02.19 | 214061 | 227729 18 | 50:36.30 | 1:24.10 | 227730 | 234039 19 | 52:00.40 | 1:57.34 | 234040 | 242848 20 | 53:57.74 | 2:42.73 | 242849 | 255071 21 | 56:40.72 | 4:03.42 | 255072 | 273338
Range status and errors
Selected range
Filename E:\!Ripped by Andy aka yetiisyou\VA - Dj Vada + Dj Mazai - Stepтусин volume 2 [MV-249] [2008]\Dj Vada - Stepтусин volume 2.wav
Peak level 100.0 % Extraction speed 2.3 X Range quality 99.9 % Test CRC 416F59CD Copy CRC 416F59CD Copy OK
No errors occurred
AccurateRip summary
Track 1 not present in databaseTrack 2 not present in databaseTrack 3 not present in databaseTrack 4 not present in databaseTrack 5 not present in databaseTrack 6 not present in databaseTrack 7 not present in databaseTrack 8 not present in databaseTrack 9 not present in databaseTrack 10 not present in databaseTrack 11 not present in databaseTrack 12 not present in databaseTrack 13 not present in databaseTrack 14 not present in databaseTrack 15 not present in databaseTrack 16 not present in databaseTrack 17 not present in databaseTrack 18 not present in databaseTrack 19 not present in databaseTrack 20 not present in databaseTrack 21 not present in database
None of the tracks are present in the AccurateRip database
End of status report
---- CUETools DB Plugin V2.1.6
[CTDB TOCID: qFWfl8JtsYM0WnKcswnigJnE5nI-] disk not present in databaseSubmit result: qFWfl8JtsYM0WnKcswnigJnE5nI- has been uploaded
==== Log checksum D6E4D39CC3FDBDCBDC70F907A127BD73DB7B2FBDF7527BBF158502E0510294C5 ====

cue CD 1

REM DATE 2008REM DISCID 3B0E3C15REM COMMENT "ExactAudioCopy v1.3"PERFORMER "Dj Vada"TITLE "Stepтусин volume 2"REM COMPOSER ""FILE "Dj Vada - Stepтусин volume 2.flac" WAVE  TRACK 01 AUDIO    TITLE "Stepтусин volume 2"    PERFORMER "Dj Vada"    REM COMPOSER ""    FLAGS DCP    INDEX 01 00:00:00  TRACK 02 AUDIO    TITLE "Stepтусин volume 2"    PERFORMER "Dj Vada"    REM COMPOSER ""    FLAGS DCP    INDEX 01 02:47:74  TRACK 03 AUDIO    TITLE "Stepтусин volume 2"    PERFORMER "Dj Vada"    REM COMPOSER ""    FLAGS DCP    INDEX 01 04:46:59  TRACK 04 AUDIO    TITLE "Stepтусин volume 2"    PERFORMER "Dj Vada"    REM COMPOSER ""    FLAGS DCP    INDEX 01 06:31:30  TRACK 05 AUDIO    TITLE "Stepтусин volume 2"    PERFORMER "Dj Vada"    REM COMPOSER ""    FLAGS DCP    INDEX 01 09:29:37  TRACK 06 AUDIO    TITLE "Stepтусин volume 2"    PERFORMER "Dj Vada"    REM COMPOSER ""    FLAGS DCP    INDEX 01 15:32:00  TRACK 07 AUDIO    TITLE "Stepтусин volume 2"    PERFORMER "Dj Vada"    REM COMPOSER ""    FLAGS DCP    INDEX 01 19:37:74  TRACK 08 AUDIO    TITLE "Stepтусин volume 2"    PERFORMER "Dj Vada"    REM COMPOSER ""    FLAGS DCP    INDEX 01 21:50:00  TRACK 09 AUDIO    TITLE "Stepтусин volume 2"    PERFORMER "Dj Vada"    REM COMPOSER ""    FLAGS DCP    INDEX 01 25:35:19  TRACK 10 AUDIO    TITLE "Stepтусин volume 2"    PERFORMER "Dj Vada"    REM COMPOSER ""    FLAGS DCP    INDEX 01 28:42:44  TRACK 11 AUDIO    TITLE "Stepтусин volume 2"    PERFORMER "Dj Vada"    REM COMPOSER ""    FLAGS DCP    INDEX 01 31:37:68  TRACK 12 AUDIO    TITLE "Stepтусин volume 2"    PERFORMER "Dj Vada"    REM COMPOSER ""    FLAGS DCP    INDEX 01 34:53:74  TRACK 13 AUDIO    TITLE "Stepтусин volume 2"    PERFORMER "Dj Vada"    REM COMPOSER ""    FLAGS DCP    INDEX 01 37:38:50  TRACK 14 AUDIO    TITLE "Stepтусин volume 2"    PERFORMER "Dj Vada"    REM COMPOSER ""    FLAGS DCP    INDEX 01 41:26:22  TRACK 15 AUDIO    TITLE "Stepтусин volume 2"    PERFORMER "Dj Vada"    REM COMPOSER ""    FLAGS DCP    INDEX 01 42:53:74  TRACK 16 AUDIO    TITLE "Stepтусин volume 2"    PERFORMER "Dj Vada"    REM COMPOSER ""    FLAGS DCP    INDEX 01 45:14:00  TRACK 17 AUDIO    TITLE "Stepтусин volume 2"    PERFORMER "Dj Vada"    REM COMPOSER ""    FLAGS DCP    INDEX 01 47:34:11  TRACK 18 AUDIO    TITLE "Stepтусин volume 2"    PERFORMER "Dj Vada"    REM COMPOSER ""    FLAGS DCP    INDEX 01 50:36:30  TRACK 19 AUDIO    TITLE "Stepтусин volume 2"    PERFORMER "Dj Vada"    REM COMPOSER ""    FLAGS DCP    INDEX 01 52:00:40  TRACK 20 AUDIO    TITLE "Stepтусин volume 2"    PERFORMER "Dj Vada"    REM COMPOSER ""    FLAGS DCP    INDEX 01 53:57:74  TRACK 21 AUDIO    TITLE "Stepтусин volume 2"    PERFORMER "Dj Vada"    REM COMPOSER ""    FLAGS DCP    INDEX 01 56:40:72

Log EAC CD 2

Exact Audio Copy V1.3 from 2. September 2016
EAC extraction logfile from 10. June 2017, 19:31
Dj Mazai / Stepтусин volume 2
Used drive : ASUS SDRW-08D2S-U Adapter: 8 ID: 6
Read mode : SecureUtilize accurate stream : YesDefeat audio cache : YesMake use of C2 pointers : No
Read offset correction : 6Overread into Lead-In and Lead-Out : NoFill up missing offset samples with silence : YesDelete leading and trailing silent blocks : NoNull samples used in CRC calculations : YesUsed interface : Installed external ASPI interface
Used output format : User Defined EncoderSelected bitrate : 128 kBit/sQuality : HighAdd ID3 tag : NoCommand line compressor : D:\flac-1.3.2-win\win64\flac.exeAdditional command line options : -V -8 -T "Date=%year%" -T "COMMENT=ripped by Andy aka yetiisyou" -T "Genre=%genre%" %source%
TOC of the extracted CD
Track | Start | Length | Start sector | End sector --------------------------------------------------------- 1 | 0:00.00 | 6:23.10 | 0 | 28734 2 | 6:23.10 | 2:55.58 | 28735 | 41917 3 | 9:18.68 | 5:09.31 | 41918 | 65123 4 | 14:28.24 | 6:09.61 | 65124 | 92859 5 | 20:38.10 | 2:55.57 | 92860 | 106041 6 | 23:33.67 | 5:09.30 | 106042 | 129246 7 | 28:43.22 | 3:54.26 | 129247 | 146822 8 | 32:37.48 | 3:25.03 | 146823 | 162200 9 | 36:02.51 | 3:58.00 | 162201 | 180050 10 | 40:00.51 | 5:17.51 | 180051 | 203876 11 | 45:18.27 | 5:22.19 | 203877 | 228045 12 | 50:40.46 | 4:56.45 | 228046 | 250290 13 | 55:37.16 | 3:39.53 | 250291 | 266768 14 | 59:16.69 | 4:09.40 | 266769 | 285483
Range status and errors
Selected range
Filename E:\!Ripped by Andy aka yetiisyou\VA - Dj Vada + Dj Mazai - Stepтусин volume 2 [MV-249] [2008]\Dj Mazai - Stepтусин volume 2.wav
Peak level 100.0 % Extraction speed 5.1 X Range quality 100.0 % Test CRC 5D3C20E1 Copy CRC 5D3C20E1 Copy OK
No errors occurred
AccurateRip summary
Track 1 not present in databaseTrack 2 not present in databaseTrack 3 not present in databaseTrack 4 not present in databaseTrack 5 not present in databaseTrack 6 not present in databaseTrack 7 not present in databaseTrack 8 not present in databaseTrack 9 not present in databaseTrack 10 not present in databaseTrack 11 not present in databaseTrack 12 not present in databaseTrack 13 not present in databaseTrack 14 not present in database
None of the tracks are present in the AccurateRip database
End of status report
---- CUETools DB Plugin V2.1.6
[CTDB TOCID: xDj11hAvwVGSVxdFKWiyvjejECU-] disk not present in databaseSubmit result: xDj11hAvwVGSVxdFKWiyvjejECU- has been uploaded
==== Log checksum FBB0E0B9B6A77F3257AA57E034A2994AB796B07F1B3E4ACDA09F173EF659CF99 ====

cue CD 2

REM DATE 2008REM DISCID B50EDE0EREM COMMENT "ExactAudioCopy v1.3"PERFORMER "Dj Mazai"TITLE "Stepтусин volume 2"REM COMPOSER ""FILE "Dj Mazai - Stepтусин volume 2.flac" WAVE  TRACK 01 AUDIO    TITLE "Stepтусин volume 2"    PERFORMER "Dj Mazai"    REM COMPOSER ""    INDEX 01 00:00:00  TRACK 02 AUDIO    TITLE "Stepтусин volume 2"    PERFORMER "Dj Mazai"    REM COMPOSER ""    INDEX 01 06:23:10  TRACK 03 AUDIO    TITLE "Stepтусин volume 2"    PERFORMER "Dj Mazai"    REM COMPOSER ""    INDEX 01 09:18:68  TRACK 04 AUDIO    TITLE "Stepтусин volume 2"    PERFORMER "Dj Mazai"    REM COMPOSER ""    INDEX 01 14:28:24  TRACK 05 AUDIO    TITLE "Stepтусин volume 2"    PERFORMER "Dj Mazai"    REM COMPOSER ""    INDEX 01 20:38:10  TRACK 06 AUDIO    TITLE "Stepтусин volume 2"    PERFORMER "Dj Mazai"    REM COMPOSER ""    INDEX 01 23:33:67  TRACK 07 AUDIO    TITLE "Stepтусин volume 2"    PERFORMER "Dj Mazai"    REM COMPOSER ""    INDEX 01 28:43:22  TRACK 08 AUDIO    TITLE "Stepтусин volume 2"    PERFORMER "Dj Mazai"    REM COMPOSER ""    INDEX 01 32:37:48  TRACK 09 AUDIO    TITLE "Stepтусин volume 2"    PERFORMER "Dj Mazai"    REM COMPOSER ""    INDEX 01 36:02:51  TRACK 10 AUDIO    TITLE "Stepтусин volume 2"    PERFORMER "Dj Mazai"    REM COMPOSER ""    INDEX 01 40:00:51  TRACK 11 AUDIO    TITLE "Stepтусин volume 2"    PERFORMER "Dj Mazai"    REM COMPOSER ""    INDEX 01 45:18:27  TRACK 12 AUDIO    TITLE "Stepтусин volume 2"    PERFORMER "Dj Mazai"    REM COMPOSER ""    INDEX 01 50:40:46  TRACK 13 AUDIO    TITLE "Stepтусин volume 2"    PERFORMER "Dj Mazai"    REM COMPOSER ""    INDEX 01 55:37:16  TRACK 14 AUDIO    TITLE "Stepтусин volume 2"    PERFORMER "Dj Mazai"    REM COMPOSER ""    INDEX 01 59:16:69
Вы не можете начинать темы
Вы не можете отвечать на сообщения
Вы не можете редактировать свои сообщения
Вы не можете удалять свои сообщения
Вы не можете голосовать в опросах
Вы не можете прикреплять файлы к сообщениям
Вы можете скачивать файлы
!ВНИМАНИЕ!

Сайт не предоставляет электронные версии произведений, а занимается лишь коллекционированием и каталогизацией ссылок, присылаемых и публикуемых на форуме нашими читателями. Если вы являетесь правообладателем какого-либо представленного материала и не желаете, чтобы ссылка на него находилась в нашем каталоге, свяжитесь с нами, и мы незамедлительно удалим ее. Файлы для обмена на трекере предоставлены пользователями сайта, и администрация не несет ответственности за их содержание. Просьба не заливать файлы, защищенные авторскими правами, а также файлы нелегального содержания!

Искали программы, игры, дополнения, музыка mp3, аниме, аудио книги, журналы? Добро пожаловать на свободный торрент трекер Torrents, у нас можно скачать бесплатно, без смс и регистрации и прочих ограничений лучшие, отборные сборки программ, игр. Скачать торрентом не составит труда даже не опытному пользователю. Раздачи ежедневно обновляются, только лучшие и качественные раздачи, подробные описания и скриншоты. Огромная коллекция программ для работы со звуком, графикой, дизайном, а так же множество плагинов и инструментов к ним с подробной инструкцией и рекомендациями. Прошивки для навигаторов, карты. Разнообразные игры, для Windows, Linux. В коллекцие есть и старые игры любых жанров, Rpg, Action, Shooter, strategy Множество дополнений, модификаций, сценариев для популярных игр в жанре экш, рпг, гонки, стратегии, логические игры. Множество аддонов и сценариев для Microsoft Flight Simulator Большая коллекция книг, учебников. Если нет возможности купить печатное издание - смело скачивайте цифровую версию книги или, быть может, журнала. Не любите читать - можно загрузить бесплатно аудикнигу. Для веб дизайнеров и программистов так же найдется множество специализированного софта, таких как: редакторы с подсветкой, среды программирования, компоненты, системы управления базами данных, разнообразные скрипты и шаблоны. Не так давно у нас появился материал для автолюбителей и владельцев мото - оригинальные и неоригинальные каталоги запчастей, книги и журналы по ремонту и обслуживанию, видеоуроки, статьи по чип тюнингу, прошивкам. Процедура получения контента элементарная, достаточно просто скачать торрент файл и добавить его в загрузку в вашем торрент клиенте. Если у вас нет специального торрент клиента, вы можете его скачать у нас.