Psihological | Thriller | Watch Now

(Breaks, Electro) Chemical Reaction Food - Fat Burner - 2002, FLAC (tracks+.cue) lossless 

Цитировать
Chemical Reaction Food / Fat Burner
Жанр: Breaks, Electro
Страна-производитель диска: Germany
Год издания диска: 2002
Издатель (лейбл): Electric Kingdom
Номер по каталогу: 74321 960442 2
Аудио кодек: FLAC (*.flac)
Тип рипа: tracks+.cue
Битрейт аудио: lossless
Продолжительность: 54:02
Источник (релизер): собственный рип
Наличие сканов в содержимом раздачи: да
Треклист:
01 Neunhundertdrei [03:48]
02 I Love to Underground [05:31]
03 Need Mo Pow [04:37]
04 Are you Mad [03:11]
05 Time... [03:43]
06 ...Me [03:47]
07 Nonstop Music [03:47]
08 Yo' Wanna Get Down [04:33]
09 It's Like This [02:03]
10 Is No Way That The Crowd Can Sit Down [03:34]
11 Can You Dig It [03:57]
12 Muthaf...er Work [01:27]
13 Watch Me Now [03:44]
14 I Promise Da Funk [03:32]
15 Back In The Studio [00:24]
16 Please, Stand Up [02:17]

Лог создания рипа

Exact Audio Copy V1.3 from 2. September 2016
EAC extraction logfile from 18. February 2018, 17:21
Chemical Reaction Food / Fat Burner
Used drive : ASUS DRW-24B5ST Adapter: 6 ID: 0
Read mode : SecureUtilize accurate stream : YesDefeat audio cache : YesMake use of C2 pointers : No
Read offset correction : 6Overread into Lead-In and Lead-Out : NoFill up missing offset samples with silence : YesDelete leading and trailing silent blocks : NoNull samples used in CRC calculations : YesUsed interface : Installed external ASPI interfaceGap handling : Appended to previous track
Used output format : User Defined EncoderSelected bitrate : 128 kBit/sQuality : HighAdd ID3 tag : NoCommand line compressor : D:\flac-1.3.2-win\win64\flac.exeAdditional command line options : -8 -V -T "ARTIST=%artist%" -T "TITLE=%title%" -T "ALBUM=%albumtitle%" -T "DATE=%year%" -T "TRACKNUMBER=%tracknr%" -T "GENRE=%genre%" -T "COMMENT=ripped by Andy aka yetiisyou" %source%
TOC of the extracted CD
Track | Start | Length | Start sector | End sector --------------------------------------------------------- 1 | 0:00.32 | 3:46.13 | 32 | 16994 2 | 3:46.45 | 5:29.65 | 16995 | 41734 3 | 9:16.35 | 4:35.45 | 41735 | 62404 4 | 13:52.05 | 3:09.12 | 62405 | 76591 5 | 17:01.17 | 3:41.53 | 76592 | 93219 6 | 20:42.70 | 3:45.12 | 93220 | 110106 7 | 24:28.07 | 3:44.70 | 110107 | 126976 8 | 28:13.02 | 4:31.33 | 126977 | 147334 9 | 32:44.35 | 2:01.57 | 147335 | 156466 10 | 34:46.17 | 3:32.35 | 156467 | 172401 11 | 38:18.52 | 3:55.15 | 172402 | 190041 12 | 42:13.67 | 1:25.55 | 190042 | 196471 13 | 43:39.47 | 3:42.13 | 196472 | 213134 14 | 47:21.60 | 3:30.62 | 213135 | 228946 15 | 50:52.47 | 0:21.68 | 228947 | 230589 16 | 51:14.40 | 2:18.17 | 230590 | 240956 17 | 56:04.57 | 17:53.18 | 252357 | 332849
Track 1
Filename E:\!Ripped by Andy aka yetiisyou\Chemical Reaction Food - Fat Burner [74321 96044 2] [2002]\01. Neunhundertdrei.wav
Pre-gap length 0:00:02.32
Peak level 100.0 % Extraction speed 1.1 X Track quality 100.0 % Test CRC E203761A Copy CRC E203761A Cannot be verified as accurate (confidence 1) [2AD8DCC7], AccurateRip returned [BD1DD9B5] (AR v2) Copy OK
Track 2
Filename E:\!Ripped by Andy aka yetiisyou\Chemical Reaction Food - Fat Burner [74321 96044 2] [2002]\02. I Love To Underground.wav
Peak level 100.0 % Extraction speed 1.2 X Track quality 100.0 % Test CRC 39863252 Copy CRC 39863252 Cannot be verified as accurate (confidence 1) [22C5DDA0], AccurateRip returned [C4CB45B6] (AR v2) Copy OK
Track 3
Filename E:\!Ripped by Andy aka yetiisyou\Chemical Reaction Food - Fat Burner [74321 96044 2] [2002]\03. Need Mo Pow.wav
Peak level 100.0 % Extraction speed 1.1 X Track quality 100.0 % Test CRC 0D5DC63B Copy CRC 0D5DC63B Cannot be verified as accurate (confidence 1) [BCC0CFDF], AccurateRip returned [8CB3A3DE] (AR v2) Copy OK
Track 4
Filename E:\!Ripped by Andy aka yetiisyou\Chemical Reaction Food - Fat Burner [74321 96044 2] [2002]\04. Are You Mad.wav
Peak level 100.0 % Extraction speed 1.0 X Track quality 100.0 % Test CRC 8B62FAD3 Copy CRC 8B62FAD3 Cannot be verified as accurate (confidence 1) [22D37E0F], AccurateRip returned [7CDA1A27] (AR v2) Copy OK
Track 5
Filename E:\!Ripped by Andy aka yetiisyou\Chemical Reaction Food - Fat Burner [74321 96044 2] [2002]\05. Time....wav
Peak level 100.0 % Extraction speed 1.0 X Track quality 100.0 % Test CRC DE49EF75 Copy CRC DE49EF75 Cannot be verified as accurate (confidence 1) [DA30C06B], AccurateRip returned [493C7AD9] (AR v2) Copy OK
Track 6
Filename E:\!Ripped by Andy aka yetiisyou\Chemical Reaction Food - Fat Burner [74321 96044 2] [2002]\06. ...Me.wav
Peak level 100.0 % Extraction speed 1.3 X Track quality 100.0 % Test CRC 0AE15D6A Copy CRC 0AE15D6A Cannot be verified as accurate (confidence 1) [6606236A], AccurateRip returned [E442E223] (AR v2) Copy OK
Track 7
Filename E:\!Ripped by Andy aka yetiisyou\Chemical Reaction Food - Fat Burner [74321 96044 2] [2002]\07. Nonstop Music.wav
Peak level 100.0 % Extraction speed 1.0 X Track quality 100.0 % Test CRC A902A828 Copy CRC A902A828 Cannot be verified as accurate (confidence 1) [3218747B], AccurateRip returned [BE72FB56] (AR v2) Copy OK
Track 8
Filename E:\!Ripped by Andy aka yetiisyou\Chemical Reaction Food - Fat Burner [74321 96044 2] [2002]\08. Yo Wanna Get Down.wav
Peak level 100.0 % Extraction speed 1.1 X Track quality 100.0 % Test CRC 199BF405 Copy CRC 199BF405 Cannot be verified as accurate (confidence 1) [51EA6532], AccurateRip returned [A5EE0CC7] (AR v2) Copy OK
Track 9
Filename E:\!Ripped by Andy aka yetiisyou\Chemical Reaction Food - Fat Burner [74321 96044 2] [2002]\09. It's Like This.wav
Peak level 100.0 % Extraction speed 0.9 X Track quality 100.0 % Test CRC B8119E07 Copy CRC B8119E07 Cannot be verified as accurate (confidence 1) [A62D670E], AccurateRip returned [A16CE8A9] (AR v2) Copy OK
Track 10
Filename E:\!Ripped by Andy aka yetiisyou\Chemical Reaction Food - Fat Burner [74321 96044 2] [2002]\10. Is No Way That The Crowd Can Sit Down.wav
Peak level 100.0 % Extraction speed 0.9 X Track quality 99.9 % Test CRC 9296B0C9 Copy CRC 9296B0C9 Cannot be verified as accurate (confidence 1) [47851C91], AccurateRip returned [1832490F] (AR v2) Copy OK
Track 11
Filename E:\!Ripped by Andy aka yetiisyou\Chemical Reaction Food - Fat Burner [74321 96044 2] [2002]\11. Can You Dig It.wav
Peak level 100.0 % Extraction speed 1.0 X Track quality 100.0 % Test CRC 88E38084 Copy CRC 88E38084 Cannot be verified as accurate (confidence 1) [D54C3FB7], AccurateRip returned [B5B6F6AC] (AR v2) Copy OK
Track 12
Filename E:\!Ripped by Andy aka yetiisyou\Chemical Reaction Food - Fat Burner [74321 96044 2] [2002]\12. Muthaf...er Work.wav
Peak level 100.0 % Extraction speed 0.8 X Track quality 100.0 % Test CRC 45667643 Copy CRC 45667643 Cannot be verified as accurate (confidence 1) [B1A40BC9], AccurateRip returned [C47BE29D] (AR v2) Copy OK
Track 13
Filename E:\!Ripped by Andy aka yetiisyou\Chemical Reaction Food - Fat Burner [74321 96044 2] [2002]\13. Watch Me Now.wav
Peak level 100.0 % Extraction speed 1.0 X Track quality 100.0 % Test CRC E97E4055 Copy CRC E97E4055 Cannot be verified as accurate (confidence 1) [BCD139BD], AccurateRip returned [0D5D75A0] (AR v2) Copy OK
Track 14
Filename E:\!Ripped by Andy aka yetiisyou\Chemical Reaction Food - Fat Burner [74321 96044 2] [2002]\14. I Promise Da Funk.wav
Peak level 100.0 % Extraction speed 0.9 X Track quality 99.9 % Test CRC 44AAF2C5 Copy CRC 44AAF2C5 Cannot be verified as accurate (confidence 1) [67669CB3], AccurateRip returned [0AFD49B9] (AR v2) Copy OK
Track 15
Filename E:\!Ripped by Andy aka yetiisyou\Chemical Reaction Food - Fat Burner [74321 96044 2] [2002]\15. Back In The Studio.wav
Peak level 70.0 % Extraction speed 0.2 X Track quality 99.5 % Test CRC 3E2C47BF Copy CRC 3E2C47BF Cannot be verified as accurate (confidence 1) [540819F2], AccurateRip returned [7502B137] (AR v2) Copy OK
Track 16
Filename E:\!Ripped by Andy aka yetiisyou\Chemical Reaction Food - Fat Burner [74321 96044 2] [2002]\16. Please, Stand Up.wav
Peak level 99.9 % Extraction speed 0.9 X Track quality 100.0 % Test CRC B0378B94 Copy CRC B0378B94 Cannot be verified as accurate (confidence 1) [8E1E22F5], AccurateRip returned [F9883C1F] (AR v2) Copy OK
No tracks could be verified as accurateYou may have a different pressing from the one(s) in the database
No errors occurred
End of status report
---- CUETools DB Plugin V2.1.6
[CTDB TOCID: on7vdlot_mXxrIUT1PkmQTXFGBY-] disk not present in databaseSubmit result: on7vdlot_mXxrIUT1PkmQTXFGBY- has been uploaded
==== Log checksum C1B0C39078B9BD2E5EA342C9E72B500048C1276715458F7C9ACD9D2F5708CC17 ====

Содержание индексной карты (.CUE)

REM GENRE "Breaks, Electro"REM DATE 2002REM DISCID E7115611REM COMMENT "ExactAudioCopy v1.3"PERFORMER "Chemical Reaction Food"TITLE "Fat Burner "REM COMPOSER ""FILE "01. Neunhundertdrei.wav" WAVE  TRACK 01 AUDIO    TITLE "Neunhundertdrei"    PERFORMER "Chemical Reaction Food"    REM COMPOSER ""    ISRC DEE190200089    PREGAP 00:00:32    INDEX 01 00:00:00FILE "02. I Love To Underground.wav" WAVE  TRACK 02 AUDIO    TITLE "I Love To Underground"    PERFORMER "Chemical Reaction Food"    REM COMPOSER ""    ISRC DEE190200084    INDEX 01 00:00:00FILE "03. Need Mo Pow.wav" WAVE  TRACK 03 AUDIO    TITLE "Need Mo Pow"    PERFORMER "Chemical Reaction Food"    REM COMPOSER ""    ISRC DEE190200090    INDEX 01 00:00:00FILE "04. Are You Mad.wav" WAVE  TRACK 04 AUDIO    TITLE "Are You Mad?"    PERFORMER "Chemical Reaction Food"    REM COMPOSER ""    ISRC DEE190200091    INDEX 01 00:00:00FILE "05. Time....wav" WAVE  TRACK 05 AUDIO    TITLE "Time..."    PERFORMER "Chemical Reaction Food"    REM COMPOSER ""    ISRC DEE190200092    INDEX 01 00:00:00FILE "06. ...Me.wav" WAVE  TRACK 06 AUDIO    TITLE "...Me"    PERFORMER "Chemical Reaction Food"    REM COMPOSER ""    ISRC DEE190200093    INDEX 01 00:00:00FILE "07. Nonstop Music.wav" WAVE  TRACK 07 AUDIO    TITLE "Nonstop Music"    PERFORMER "Chemical Reaction Food"    REM COMPOSER ""    ISRC DEE190200094    INDEX 01 00:00:00FILE "08. Yo Wanna Get Down.wav" WAVE  TRACK 08 AUDIO    TITLE "Yo Wanna Get Down"    PERFORMER "Chemical Reaction Food"    REM COMPOSER ""    ISRC DEE190200095    INDEX 01 00:00:00FILE "09. It's Like This.wav" WAVE  TRACK 09 AUDIO    TITLE "It's Like This"    PERFORMER "Chemical Reaction Food"    REM COMPOSER ""    ISRC DEE190200096    INDEX 01 00:00:00FILE "10. Is No Way That The Crowd Can Sit Down.wav" WAVE  TRACK 10 AUDIO    TITLE "Is No Way That The Crowd Can Sit Down"    PERFORMER "Chemical Reaction Food"    REM COMPOSER ""    ISRC DEE190200097    INDEX 01 00:00:00FILE "11. Can You Dig It.wav" WAVE  TRACK 11 AUDIO    TITLE "Can You Dig It?"    PERFORMER "Chemical Reaction Food"    REM COMPOSER ""    ISRC DEE190200098    INDEX 01 00:00:00FILE "12. Muthaf...er Work.wav" WAVE  TRACK 12 AUDIO    TITLE "Muthaf...er Work"    PERFORMER "Chemical Reaction Food"    REM COMPOSER ""    ISRC DEE190200099    INDEX 01 00:00:00FILE "13. Watch Me Now.wav" WAVE  TRACK 13 AUDIO    TITLE "Watch Me Now"    PERFORMER "Chemical Reaction Food"    REM COMPOSER ""    ISRC DEE190200100    INDEX 01 00:00:00FILE "14. I Promise Da Funk.wav" WAVE  TRACK 14 AUDIO    TITLE "I Promise Da Funk"    PERFORMER "Chemical Reaction Food"    REM COMPOSER ""    ISRC DEE190200101    INDEX 01 00:00:00FILE "15. Back In The Studio.wav" WAVE  TRACK 15 AUDIO    TITLE "Back In The Studio"    PERFORMER "Chemical Reaction Food"    REM COMPOSER ""    ISRC DEE190200102    INDEX 01 00:00:00FILE "16. Please, Stand Up.wav" WAVE  TRACK 16 AUDIO    TITLE "Please, Stand Up"    PERFORMER "Chemical Reaction Food"    REM COMPOSER ""    ISRC DEE190200103    INDEX 01 00:00:00  TRACK 17 MODEx/2xxx    TITLE "Track17"    PERFORMER "Chemical Reaction Food"    REM COMPOSER ""    INDEX 00 02:18:17
Maximillian Lenz (Westbam, Members of Mayday) \ Electric Kingdom & Low spirit Recordings
Вы не можете начинать темы
Вы не можете отвечать на сообщения
Вы не можете редактировать свои сообщения
Вы не можете удалять свои сообщения
Вы не можете голосовать в опросах
Вы не можете прикреплять файлы к сообщениям
Вы можете скачивать файлы
!ВНИМАНИЕ!

Сайт не предоставляет электронные версии произведений, а занимается лишь коллекционированием и каталогизацией ссылок, присылаемых и публикуемых на форуме нашими читателями. Если вы являетесь правообладателем какого-либо представленного материала и не желаете, чтобы ссылка на него находилась в нашем каталоге, свяжитесь с нами, и мы незамедлительно удалим ее. Файлы для обмена на трекере предоставлены пользователями сайта, и администрация не несет ответственности за их содержание. Просьба не заливать файлы, защищенные авторскими правами, а также файлы нелегального содержания!

Искали программы, игры, дополнения, музыка mp3, аниме, аудио книги, журналы? Добро пожаловать на свободный торрент трекер Torrents, у нас можно скачать бесплатно, без смс и регистрации и прочих ограничений лучшие, отборные сборки программ, игр. Скачать торрентом не составит труда даже не опытному пользователю. Раздачи ежедневно обновляются, только лучшие и качественные раздачи, подробные описания и скриншоты. Огромная коллекция программ для работы со звуком, графикой, дизайном, а так же множество плагинов и инструментов к ним с подробной инструкцией и рекомендациями. Прошивки для навигаторов, карты. Разнообразные игры, для Windows, Linux. В коллекцие есть и старые игры любых жанров, Rpg, Action, Shooter, strategy Множество дополнений, модификаций, сценариев для популярных игр в жанре экш, рпг, гонки, стратегии, логические игры. Множество аддонов и сценариев для Microsoft Flight Simulator Большая коллекция книг, учебников. Если нет возможности купить печатное издание - смело скачивайте цифровую версию книги или, быть может, журнала. Не любите читать - можно загрузить бесплатно аудикнигу. Для веб дизайнеров и программистов так же найдется множество специализированного софта, таких как: редакторы с подсветкой, среды программирования, компоненты, системы управления базами данных, разнообразные скрипты и шаблоны. Не так давно у нас появился материал для автолюбителей и владельцев мото - оригинальные и неоригинальные каталоги запчастей, книги и журналы по ремонту и обслуживанию, видеоуроки, статьи по чип тюнингу, прошивкам. Процедура получения контента элементарная, достаточно просто скачать торрент файл и добавить его в загрузку в вашем торрент клиенте. Если у вас нет специального торрент клиента, вы можете его скачать у нас.