MasterChef: The Professionals | The Twilight Zone (2002) | ONE PIECE TREASURE CRUISE MOD

(Electronic, Breakbeat) [CD] The Prodigy - Music For The Jilted Generation - 1997, FLAC (tracks+.cue), lossless 

Цитировать
The Prodigy / Music For The Jilted Generation
Жанр: Electronic, Breakbeat
Носитель: CD
Страна-производитель диска (релиза): Russia
Год издания: 1997
Издатель (лейбл): Diamond Sound
Страна исполнителя (группы): England
Аудиокодек: FLAC (*.flac)
Тип рипа: tracks+.cue
Битрейт аудио: lossless
Продолжительность: 01:18:15
Источник (релизер): CD
Наличие сканов в содержимом раздачи: да
Discogs: discogs.com

.
.
.
.
.
.

Треклист

01. Intro (0:45)
02. Break & Enter (8:24)
03. Their Law (Featuring Pop Will Eat Itself) (6:41)
04. Full Throttle (5:02)
05. Voodoo People (6:27)
06. Speedway (Theme From Fastlane) (8:57)
07. The Heat (The Energy) (4:27)
08. Poison (6:42)
09. No Good (Start The Dance) (6:18)
10. One Love (Edit) (3:54)
11. 3 Kilos (7:26)
12. Skylined (5:57)
13. Claustrophobic Sting (7:13)
Duration: 01:18:15

Лог создания рипа

Exact Audio Copy V1.3 from 2. September 2016
EAC extraction logfile from 1. September 2018, 18:08
The Prodigy / Music For The Jilted Generation
Used drive : Optiarc DVD RW AD-5200S Adapter: 1 ID: 0
Read mode : SecureUtilize accurate stream : YesDefeat audio cache : YesMake use of C2 pointers : No
Read offset correction : 48Overread into Lead-In and Lead-Out : NoFill up missing offset samples with silence : YesDelete leading and trailing silent blocks : NoNull samples used in CRC calculations : YesUsed interface : Native Win32 interface for Win NT & 2000Gap handling : Appended to previous track
Used output format : User Defined EncoderSelected bitrate : 1024 kBit/sQuality : HighAdd ID3 tag : NoCommand line compressor : C:\Program Files (x86)\Exact Audio Copy\Flac\flac.exeAdditional command line options : -8 -V -T "ARTIST=%artist%" -T "TITLE=%title%" -T "ALBUM=%albumtitle%" -T "DATE=%year%" -T "TRACKNUMBER=%tracknr%" -T "GENRE=%genre%" -T "PERFORMER=%albuminterpret%" -T "COMPOSER=%composer%" %haslyrics%--tag-from-file=LYRICS="%lyricsfile%"%haslyrics% -T "ALBUMARTIST=%albumartist%" -T "DISCNUMBER=%cdnumber%" -T "TOTALDISCS=%totalcds%" -T "TOTALTRACKS=%numtracks%" -T "COMMENT=%comment%" %source% -o %dest%
TOC of the extracted CD
Track | Start | Length | Start sector | End sector --------------------------------------------------------- 1 | 0:00.25 | 0:45.32 | 25 | 3431 2 | 0:45.57 | 8:24.20 | 3432 | 41251 3 | 9:10.02 | 6:40.68 | 41252 | 71319 4 | 15:50.70 | 5:02.37 | 71320 | 94006 5 | 20:53.32 | 6:27.03 | 94007 | 123034 6 | 27:20.35 | 8:57.30 | 123035 | 163339 7 | 36:17.65 | 4:26.45 | 163340 | 183334 8 | 40:44.35 | 6:42.30 | 183335 | 213514 9 | 47:26.65 | 6:17.65 | 213515 | 241854 10 | 53:44.55 | 3:53.52 | 241855 | 259381 11 | 57:38.32 | 7:25.60 | 259382 | 292816 12 | 65:04.17 | 5:57.33 | 292817 | 319624 13 | 71:01.50 | 7:13.37 | 319625 | 352136
Track 1
Filename C:\Ripped by maximus_lt\01. Intro.wav
Pre-gap length 0:00:02.33
Peak level 49.5 % Extraction speed 0.6 X Track quality 100.0 % Test CRC C44C3088 Copy CRC C44C3088 Accurately ripped (confidence 3) [833CF18C] (AR v2) Copy OK
Track 2
Filename C:\Ripped by maximus_lt\02. Break & Enter.wav
Pre-gap length 0:00:00.02
Peak level 98.8 % Extraction speed 1.1 X Track quality 100.0 % Test CRC 486449FB Copy CRC 486449FB Accurately ripped (confidence 3) [C8C3C061] (AR v2) Copy OK
Track 3
Filename C:\Ripped by maximus_lt\03. Their Law (Featuring Pop Will Eat Itself).wav
Pre-gap length 0:00:00.02
Peak level 98.8 % Extraction speed 1.1 X Track quality 100.0 % Test CRC 1E16EB68 Copy CRC 1E16EB68 Accurately ripped (confidence 3) [F0866B9A] (AR v2) Copy OK
Track 4
Filename C:\Ripped by maximus_lt\04. Full Throttle.wav
Pre-gap length 0:00:00.04
Peak level 98.8 % Extraction speed 1.1 X Track quality 100.0 % Test CRC E02E60FF Copy CRC E02E60FF Accurately ripped (confidence 3) [37528563] (AR v2) Copy OK
Track 5
Filename C:\Ripped by maximus_lt\05. Voodoo People.wav
Pre-gap length 0:00:00.02
Peak level 98.8 % Extraction speed 1.1 X Track quality 100.0 % Test CRC 1BF9E511 Copy CRC 1BF9E511 Accurately ripped (confidence 2) [61CA6384] (AR v2) Copy OK
Track 6
Filename C:\Ripped by maximus_lt\06. Speedway (Theme From Fastlane).wav
Pre-gap length 0:00:00.04
Peak level 98.8 % Extraction speed 1.1 X Track quality 100.0 % Test CRC D4B3106D Copy CRC D4B3106D Accurately ripped (confidence 3) [1A2F720A] (AR v2) Copy OK
Track 7
Filename C:\Ripped by maximus_lt\07. The Heat (The Energy).wav
Pre-gap length 0:00:00.04
Peak level 98.8 % Extraction speed 0.9 X Track quality 99.9 % Test CRC 61215A2E Copy CRC 61215A2E Accurately ripped (confidence 3) [33BE9C53] (AR v2) Copy OK
Track 8
Filename C:\Ripped by maximus_lt\08. Poison.wav
Pre-gap length 0:00:00.04
Peak level 98.8 % Extraction speed 1.0 X Track quality 99.9 % Test CRC 6D088FDD Copy CRC 6D088FDD Accurately ripped (confidence 3) [DB17A6DD] (AR v2) Copy OK
Track 9
Filename C:\Ripped by maximus_lt\09. No Good (Start The Dance).wav
Pre-gap length 0:00:00.04
Peak level 98.8 % Extraction speed 1.1 X Track quality 100.0 % Test CRC 1778D9B8 Copy CRC 1778D9B8 Accurately ripped (confidence 3) [19AEDFF6] (AR v2) Copy OK
Track 10
Filename C:\Ripped by maximus_lt\10. One Love (Edit).wav
Pre-gap length 0:00:00.04
Peak level 98.8 % Extraction speed 0.9 X Track quality 99.9 % Test CRC F5C2462F Copy CRC F5C2462F Accurately ripped (confidence 3) [FCBB1513] (AR v2) Copy OK
Track 11
Filename C:\Ripped by maximus_lt\11. 3 Kilos.wav
Pre-gap length 0:00:00.02
Peak level 98.8 % Extraction speed 1.1 X Track quality 100.0 % Test CRC 8D6DD3F8 Copy CRC 8D6DD3F8 Accurately ripped (confidence 3) [13740E4F] (AR v2) Copy OK
Track 12
Filename C:\Ripped by maximus_lt\12. Skylined.wav
Pre-gap length 0:00:00.02
Peak level 98.8 % Extraction speed 1.1 X Track quality 100.0 % Test CRC 2C015423 Copy CRC 2C015423 Accurately ripped (confidence 3) [1BEC0452] (AR v2) Copy OK
Track 13
Filename C:\Ripped by maximus_lt\13. Claustrophobic Sting.wav
Pre-gap length 0:00:00.06
Peak level 85.8 % Extraction speed 0.8 X Track quality 99.9 % Test CRC 67EAA09B Copy CRC 67EAA09B Cannot be verified as accurate (confidence 7) [E2EEA38F], AccurateRip returned [451C68D1] (AR v2) Copy OK
12 трек(и) скопированы точно 1 трек(и) не удалось проверить на точность
Some tracks could not be verified as accurate
No errors occurred
End of status report
---- CUETools DB Plugin V2.1.6
[CTDB TOCID: Flp1RBw5.xHObJSB781Metv1okw-] foundSubmit result: Flp1RBw5.xHObJSB781Metv1okw- has been submittedTrack | CTDB Status 1 | (7/7) Accurately ripped 2 | (6/7) Accurately ripped, or (1/7) differs in 26 samples @06:32:20-06:32:21 3 | (7/7) Accurately ripped 4 | (7/7) Accurately ripped 5 | (7/7) Accurately ripped 6 | (7/7) Accurately ripped 7 | (6/7) Accurately ripped, or (1/7) differs in 240 samples @03:54:29-03:54:30,03:56:19-03:56:20 8 | (7/7) Accurately ripped 9 | (7/7) Accurately ripped 10 | (7/7) Accurately ripped 11 | (7/7) Accurately ripped 12 | (7/7) Accurately ripped 13 | (1/7) Differs in 2 samples @01:35:41, or (1/7) differs in 2 samples @01:35:41, or (5/7) differs in 2 samples @01:35:41If you are sure that your rip contains errors, you can use CUETools to repair it.
==== Log checksum 176637F16A5AEC4CF109D546AF6D337D7AB710D46C15D6C3E50BC93B18430C01 ====

Содержание индексной карты (.CUE)

REM GENRE ElectronicREM DATE 1994REM DISCID B712570DREM COMMENT "ExactAudioCopy v1.3"PERFORMER "The Prodigy"TITLE "Music For The Jilted Generation"REM COMPOSER ""FILE "01. Intro.wav" WAVE  TRACK 01 AUDIO    TITLE "Intro"    PERFORMER "The Prodigy"    REM COMPOSER ""    PREGAP 00:00:25    INDEX 01 00:00:00  TRACK 02 AUDIO    TITLE "Break & Enter"    PERFORMER "The Prodigy"    REM COMPOSER ""    INDEX 00 00:45:30FILE "02. Break & Enter.wav" WAVE    INDEX 01 00:00:00  TRACK 03 AUDIO    TITLE "Their Law (Featuring Pop Will Eat Itself)"    PERFORMER "The Prodigy"    REM COMPOSER ""    INDEX 00 08:24:18FILE "03. Their Law (Featuring Pop Will Eat Itself).wav" WAVE    INDEX 01 00:00:00  TRACK 04 AUDIO    TITLE "Full Throttle"    PERFORMER "The Prodigy"    REM COMPOSER ""    INDEX 00 06:40:65FILE "04. Full Throttle.wav" WAVE    INDEX 01 00:00:00  TRACK 05 AUDIO    TITLE "Voodoo People"    PERFORMER "The Prodigy"    REM COMPOSER ""    INDEX 00 05:02:35FILE "05. Voodoo People.wav" WAVE    INDEX 01 00:00:00  TRACK 06 AUDIO    TITLE "Speedway (Theme From Fastlane)"    PERFORMER "The Prodigy"    REM COMPOSER ""    INDEX 00 06:27:00FILE "06. Speedway (Theme From Fastlane).wav" WAVE    INDEX 01 00:00:00  TRACK 07 AUDIO    TITLE "The Heat (The Energy)"    PERFORMER "The Prodigy"    REM COMPOSER ""    INDEX 00 08:57:27FILE "07. The Heat (The Energy).wav" WAVE    INDEX 01 00:00:00  TRACK 08 AUDIO    TITLE "Poison"    PERFORMER "The Prodigy"    REM COMPOSER ""    INDEX 00 04:26:42FILE "08. Poison.wav" WAVE    INDEX 01 00:00:00  TRACK 09 AUDIO    TITLE "No Good (Start The Dance)"    PERFORMER "The Prodigy"    REM COMPOSER ""    INDEX 00 06:42:27FILE "09. No Good (Start The Dance).wav" WAVE    INDEX 01 00:00:00  TRACK 10 AUDIO    TITLE "One Love (Edit)"    PERFORMER "The Prodigy"    REM COMPOSER ""    INDEX 00 06:17:62FILE "10. One Love (Edit).wav" WAVE    INDEX 01 00:00:00  TRACK 11 AUDIO    TITLE "3 Kilos"    PERFORMER "The Prodigy"    REM COMPOSER ""    INDEX 00 03:53:50FILE "11. 3 Kilos.wav" WAVE    INDEX 01 00:00:00  TRACK 12 AUDIO    TITLE "Skylined"    PERFORMER "The Prodigy"    REM COMPOSER ""    INDEX 00 07:25:58FILE "12. Skylined.wav" WAVE    INDEX 01 00:00:00  TRACK 13 AUDIO    TITLE "Claustrophobic Sting"    PERFORMER "The Prodigy"    REM COMPOSER ""    INDEX 00 05:57:28FILE "13. Claustrophobic Sting.wav" WAVE    INDEX 01 00:00:00
Вы не можете начинать темы
Вы не можете отвечать на сообщения
Вы не можете редактировать свои сообщения
Вы не можете удалять свои сообщения
Вы не можете голосовать в опросах
Вы не можете прикреплять файлы к сообщениям
Вы можете скачивать файлы
!ВНИМАНИЕ!

Сайт не предоставляет электронные версии произведений, а занимается лишь коллекционированием и каталогизацией ссылок, присылаемых и публикуемых на форуме нашими читателями. Если вы являетесь правообладателем какого-либо представленного материала и не желаете, чтобы ссылка на него находилась в нашем каталоге, свяжитесь с нами, и мы незамедлительно удалим ее. Файлы для обмена на трекере предоставлены пользователями сайта, и администрация не несет ответственности за их содержание. Просьба не заливать файлы, защищенные авторскими правами, а также файлы нелегального содержания!

Искали программы, игры, дополнения, музыка mp3, аниме, аудио книги, журналы? Добро пожаловать на свободный торрент трекер Torrents, у нас можно скачать бесплатно, без смс и регистрации и прочих ограничений лучшие, отборные сборки программ, игр. Скачать торрентом не составит труда даже не опытному пользователю. Раздачи ежедневно обновляются, только лучшие и качественные раздачи, подробные описания и скриншоты. Огромная коллекция программ для работы со звуком, графикой, дизайном, а так же множество плагинов и инструментов к ним с подробной инструкцией и рекомендациями. Прошивки для навигаторов, карты. Разнообразные игры, для Windows, Linux. В коллекцие есть и старые игры любых жанров, Rpg, Action, Shooter, strategy Множество дополнений, модификаций, сценариев для популярных игр в жанре экш, рпг, гонки, стратегии, логические игры. Множество аддонов и сценариев для Microsoft Flight Simulator Большая коллекция книг, учебников. Если нет возможности купить печатное издание - смело скачивайте цифровую версию книги или, быть может, журнала. Не любите читать - можно загрузить бесплатно аудикнигу. Для веб дизайнеров и программистов так же найдется множество специализированного софта, таких как: редакторы с подсветкой, среды программирования, компоненты, системы управления базами данных, разнообразные скрипты и шаблоны. Не так давно у нас появился материал для автолюбителей и владельцев мото - оригинальные и неоригинальные каталоги запчастей, книги и журналы по ремонту и обслуживанию, видеоуроки, статьи по чип тюнингу, прошивкам. Процедура получения контента элементарная, достаточно просто скачать торрент файл и добавить его в загрузку в вашем торрент клиенте. Если у вас нет специального торрент клиента, вы можете его скачать у нас.