Trolls (2016) | The Stronghold FRENCH WEBRIP 2018 | American Dad

(Progressive House, Breakbeat, Tech House) [CD] Freaky Chakra - Moonroof Operator - 2003, FLAC (tracks+.cue), lossless 

Цитировать
Freaky Chakra / Moonroof Operator
Жанр: Progressive House, Breakbeat, Tech House
Носитель: CD
Страна-производитель диска (релиза): US
Год издания: 2003
Издатель (лейбл): Run Recordings
Номер по каталогу: RUN 33785
Страна исполнителя (группы): US
Аудиокодек: FLAC (*.flac)
Тип рипа: tracks+.cue
Битрейт аудио: lossless
Продолжительность: 01:07:30
Источник (релизер): CD из коллекции
Наличие сканов в содержимом раздачи: нет
Треклист:
01 Freaky Chakra - Come Back Here (6:33)
02 Freaky Chakra - Automat (5:02)
03 Sean Q6 - Out in the Shed (Freaky Chakra Mix) (4:17)
04 Freaky Chakra - Glimmer of Dope Theme 3 (8:42)
05 Freaky Chakra - Distance (6:48)
06 Freaky Chakra - Get Up, Get It (4:45)
07 Freaky Chakra - Desire (4:03)
08 Freaky Chakra - Sincere (6:57)
09 Freaky Chakra - Off On One (6:47)
10 Freaky Chakra - Western (4:22)
11 Freaky Chakra - Just Because You Can (Feat. Deepher Love) (9:08)

Лог создания рипа

Exact Audio Copy V1.3 from 2. September 2016
Отчёт EAC об извлечении, выполненном 28. августа 2018, 21:58
Freaky Chakra / Moonroof Operator
Дисковод: PIONEER DVD-RW DVRTD11RS Adapter: 1 ID: 0
Режим чтения : ДостоверностьИспользование точного потока : ДаОтключение кэша аудио : ДаИспользование указателей C2 : Нет
Коррекция смещения при чтении : 6Способность читать области Lead-in и Lead-out : НетЗаполнение пропущенных сэмплов тишиной : ДаУдаление блоков с тишиной в начале и конце : НетПри вычислениях CRC использовались нулевые сэмплы : ДаИнтерфейс : Встроенный Win32-интерфейс для Win NT/2000Обработка зазоров : Добавлено к предыдущему треку
Выходной формат : Пользовательский кодировщикВыбранный битрейт : 1024 kBit/sКачество : ВысокийДобавление ID3-тега : НетУтилита сжатия : C:\Program Files (x86)\Exact Audio Copy\Flac\flac.exeДополнительные параметры : -V -8 -T "Date=%year%" -T "Genre=%genre%" %source%
TOC извлечённого CD
Трек | Старт | Длительность | Начальный сектор | Конечный сектор --------------------------------------------------------------------- 1 | 0:00.00 | 6:33.05 | 0 | 29479 2 | 6:33.05 | 5:02.25 | 29480 | 52154 3 | 11:35.30 | 4:17.20 | 52155 | 71449 4 | 15:52.50 | 8:42.12 | 71450 | 110611 5 | 24:34.62 | 6:48.13 | 110612 | 141224 6 | 31:23.00 | 4:45.25 | 141225 | 162624 7 | 36:08.25 | 4:03.67 | 162625 | 180916 8 | 40:12.17 | 6:57.73 | 180917 | 212264 9 | 47:10.15 | 6:47.72 | 212265 | 242861 10 | 53:58.12 | 4:22.48 | 242862 | 262559 11 | 58:20.60 | 9:08.55 | 262560 | 303714
Трек 1
Имя файла D:\Convert\2003 Moonroof Operator\tracks\01 Freaky Chakra - Freaky Chakra , Come Back Here.wav
Длина предзазора 0:00:02.00
Пиковый уровень 96.6 % Скорость извлечения 3.0 X Качество трека 99.9 % CRC теста F1739B53 CRC копии F1739B53 Точное извлечение (достоверность 3) [5E82A775] (AR v2) Копирование... OK
Трек 2
Имя файла D:\Convert\2003 Moonroof Operator\tracks\02 Freaky Chakra - Freaky Chakra , Automat.wav
Пиковый уровень 96.6 % Скорость извлечения 3.6 X Качество трека 100.0 % CRC теста 191E935D CRC копии 191E935D Точное извлечение (достоверность 3) [BDE6B334] (AR v2) Копирование... OK
Трек 3
Имя файла D:\Convert\2003 Moonroof Operator\tracks\03 Freaky Chakra - Sean Q6 , Out In The Shed [Freaky Chakra Mix].wav
Пиковый уровень 96.6 % Скорость извлечения 3.4 X Качество трека 99.9 % CRC теста 863ACD77 CRC копии 863ACD77 Точное извлечение (достоверность 3) [D7C13DF1] (AR v2) Копирование... OK
Трек 4
Имя файла D:\Convert\2003 Moonroof Operator\tracks\04 Freaky Chakra - Freaky Chakra , Glimmer Of Dope Theme 3.wav
Пиковый уровень 97.7 % Скорость извлечения 4.5 X Качество трека 100.0 % CRC теста 2038BF70 CRC копии 2038BF70 Точное извлечение (достоверность 3) [9B242C68] (AR v2) Копирование... OK
Трек 5
Имя файла D:\Convert\2003 Moonroof Operator\tracks\05 Freaky Chakra - Freaky Chakra , Distance.wav
Пиковый уровень 99.9 % Скорость извлечения 4.9 X Качество трека 100.0 % CRC теста 57C5097A CRC копии 57C5097A Точное извлечение (достоверность 3) [7A26D803] (AR v2) Копирование... OK
Трек 6
Имя файла D:\Convert\2003 Moonroof Operator\tracks\06 Freaky Chakra - Freaky Chakra , Get Up, Get It.wav
Пиковый уровень 96.6 % Скорость извлечения 5.0 X Качество трека 100.0 % CRC теста 678E8069 CRC копии 678E8069 Точное извлечение (достоверность 3) [B95088DA] (AR v2) Копирование... OK
Трек 7
Имя файла D:\Convert\2003 Moonroof Operator\tracks\07 Freaky Chakra - Freaky Chakra , Desire.wav
Пиковый уровень 96.6 % Скорость извлечения 5.1 X Качество трека 100.0 % CRC теста BEF1D851 CRC копии BEF1D851 Точное извлечение (достоверность 3) [C1659A64] (AR v2) Копирование... OK
Трек 8
Имя файла D:\Convert\2003 Moonroof Operator\tracks\08 Freaky Chakra - Freaky Chakra , Sincere.wav
Пиковый уровень 93.3 % Скорость извлечения 5.2 X Качество трека 99.9 % CRC теста CD1C2587 CRC копии CD1C2587 Точное извлечение (достоверность 3) [2D65EB89] (AR v2) Копирование... OK
Трек 9
Имя файла D:\Convert\2003 Moonroof Operator\tracks\09 Freaky Chakra - Freaky Chakra , Off On One.wav
Пиковый уровень 96.6 % Скорость извлечения 5.9 X Качество трека 100.0 % CRC теста 9AC41DF0 CRC копии 9AC41DF0 Точное извлечение (достоверность 3) [5AAE9C17] (AR v2) Копирование... OK
Трек 10
Имя файла D:\Convert\2003 Moonroof Operator\tracks\10 Freaky Chakra - Freaky Chakra , Western.wav
Пиковый уровень 96.6 % Скорость извлечения 5.8 X Качество трека 100.0 % CRC теста C4105C02 CRC копии C4105C02 Точное извлечение (достоверность 3) [6577E618] (AR v2) Копирование... OK
Трек 11
Имя файла D:\Convert\2003 Moonroof Operator\tracks\11 Freaky Chakra - Freaky Chakra , Just Because You Can (feat. Deeper Love).wav
Пиковый уровень 97.7 % Скорость извлечения 6.6 X Качество трека 100.0 % CRC теста 1C92CD06 CRC копии 1C92CD06 Точное извлечение (достоверность 3) [D3EA2132] (AR v2) Копирование... OK
Все треки извлечены точно
Ошибок не произошло
Конец отчёта
==== Контрольная сумма отчёта F3520811BA6EAE28132376A2FAA28A2539F317B286230A4E176589CBCC4FB9A9 ====

Содержание индексной карты (.CUE)

REM GENRE HouseREM DATE 2003REM DISCID 9A0FD10BREM COMMENT "ExactAudioCopy v1.3"PERFORMER "Freaky Chakra"TITLE "Moonroof Operator"REM COMPOSER ""FILE "01 Freaky Chakra - Freaky Chakra , Come Back Here.wav" WAVE  TRACK 01 AUDIO    TITLE "Freaky Chakra / Come Back Here"    PERFORMER "Freaky Chakra"    REM COMPOSER ""    INDEX 01 00:00:00FILE "02 Freaky Chakra - Freaky Chakra , Automat.wav" WAVE  TRACK 02 AUDIO    TITLE "Freaky Chakra / Automat"    PERFORMER "Freaky Chakra"    REM COMPOSER ""    INDEX 01 00:00:00FILE "03 Freaky Chakra - Sean Q6 , Out In The Shed [Freaky Chakra Mix].wav" WAVE  TRACK 03 AUDIO    TITLE "Sean Q6 / Out In The Shed [Freaky Chakra Mix]"    PERFORMER "Freaky Chakra"    REM COMPOSER ""    INDEX 01 00:00:00FILE "04 Freaky Chakra - Freaky Chakra , Glimmer Of Dope Theme 3.wav" WAVE  TRACK 04 AUDIO    TITLE "Freaky Chakra / Glimmer Of Dope Theme 3"    PERFORMER "Freaky Chakra"    REM COMPOSER ""    INDEX 01 00:00:00FILE "05 Freaky Chakra - Freaky Chakra , Distance.wav" WAVE  TRACK 05 AUDIO    TITLE "Freaky Chakra / Distance"    PERFORMER "Freaky Chakra"    REM COMPOSER ""    INDEX 01 00:00:00FILE "06 Freaky Chakra - Freaky Chakra , Get Up, Get It.wav" WAVE  TRACK 06 AUDIO    TITLE "Freaky Chakra / Get Up, Get It"    PERFORMER "Freaky Chakra"    REM COMPOSER ""    INDEX 01 00:00:00FILE "07 Freaky Chakra - Freaky Chakra , Desire.wav" WAVE  TRACK 07 AUDIO    TITLE "Freaky Chakra / Desire"    PERFORMER "Freaky Chakra"    REM COMPOSER ""    INDEX 01 00:00:00FILE "08 Freaky Chakra - Freaky Chakra , Sincere.wav" WAVE  TRACK 08 AUDIO    TITLE "Freaky Chakra / Sincere"    PERFORMER "Freaky Chakra"    REM COMPOSER ""    INDEX 01 00:00:00FILE "09 Freaky Chakra - Freaky Chakra , Off On One.wav" WAVE  TRACK 09 AUDIO    TITLE "Freaky Chakra / Off On One"    PERFORMER "Freaky Chakra"    REM COMPOSER ""    INDEX 01 00:00:00FILE "10 Freaky Chakra - Freaky Chakra , Western.wav" WAVE  TRACK 10 AUDIO    TITLE "Freaky Chakra / Western"    PERFORMER "Freaky Chakra"    REM COMPOSER ""    INDEX 01 00:00:00FILE "11 Freaky Chakra - Freaky Chakra , Just Because You Can (feat. Deeper Love).wav" WAVE  TRACK 11 AUDIO    TITLE "Freaky Chakra / Just Because You Can (feat. Deeper Love)"    PERFORMER "Freaky Chakra"    REM COMPOSER ""    INDEX 01 00:00:00
Вы не можете начинать темы
Вы не можете отвечать на сообщения
Вы не можете редактировать свои сообщения
Вы не можете удалять свои сообщения
Вы не можете голосовать в опросах
Вы не можете прикреплять файлы к сообщениям
Вы можете скачивать файлы
!ВНИМАНИЕ!

Сайт не предоставляет электронные версии произведений, а занимается лишь коллекционированием и каталогизацией ссылок, присылаемых и публикуемых на форуме нашими читателями. Если вы являетесь правообладателем какого-либо представленного материала и не желаете, чтобы ссылка на него находилась в нашем каталоге, свяжитесь с нами, и мы незамедлительно удалим ее. Файлы для обмена на трекере предоставлены пользователями сайта, и администрация не несет ответственности за их содержание. Просьба не заливать файлы, защищенные авторскими правами, а также файлы нелегального содержания!

Искали программы, игры, дополнения, музыка mp3, аниме, аудио книги, журналы? Добро пожаловать на свободный торрент трекер Torrents, у нас можно скачать бесплатно, без смс и регистрации и прочих ограничений лучшие, отборные сборки программ, игр. Скачать торрентом не составит труда даже не опытному пользователю. Раздачи ежедневно обновляются, только лучшие и качественные раздачи, подробные описания и скриншоты. Огромная коллекция программ для работы со звуком, графикой, дизайном, а так же множество плагинов и инструментов к ним с подробной инструкцией и рекомендациями. Прошивки для навигаторов, карты. Разнообразные игры, для Windows, Linux. В коллекцие есть и старые игры любых жанров, Rpg, Action, Shooter, strategy Множество дополнений, модификаций, сценариев для популярных игр в жанре экш, рпг, гонки, стратегии, логические игры. Множество аддонов и сценариев для Microsoft Flight Simulator Большая коллекция книг, учебников. Если нет возможности купить печатное издание - смело скачивайте цифровую версию книги или, быть может, журнала. Не любите читать - можно загрузить бесплатно аудикнигу. Для веб дизайнеров и программистов так же найдется множество специализированного софта, таких как: редакторы с подсветкой, среды программирования, компоненты, системы управления базами данных, разнообразные скрипты и шаблоны. Не так давно у нас появился материал для автолюбителей и владельцев мото - оригинальные и неоригинальные каталоги запчастей, книги и журналы по ремонту и обслуживанию, видеоуроки, статьи по чип тюнингу, прошивкам. Процедура получения контента элементарная, достаточно просто скачать торрент файл и добавить его в загрузку в вашем торрент клиенте. Если у вас нет специального торрент клиента, вы можете его скачать у нас.