Télécharger Les Films HD | El Hazard The Magnificent World Episode 2 English Dubbed | Hoods Entertainment

(Electronica, Tribal, Drums and Chanting, Christian) [CD] Tribe - Garden - 2003, FLAC (tracks+.cue), lossless 

Цитировать
Tribe / Garden
Жанр: Electronica, Tribal, Drums and Chanting, Christian
Носитель: CD
Год издания: 2003
Страна исполнителя (группы): USA
Аудиокодек: FLAC (*.flac)
Тип рипа: tracks+.cue
Битрейт аудио: lossless
Продолжительность: 00:44:14
Источник (релизер): CD
Наличие сканов в содержимом раздачи: да
Треклист:
01. Endures
02. Shine
03. Garden
04. Adore
05. Lamb
06. Freedom
07. Refine
08. Breath
09. Path
10. Yahweh

Лог создания рипа

Exact Audio Copy V1.0 beta 3 from 29. August 2011
EAC extraction logfile from 19. November 2014, 22:02
Tribe / Garden
Used drive : TSSTcorpCDDVDW TS-H653R Adapter: 0 ID: 0
Read mode : SecureUtilize accurate stream : YesDefeat audio cache : YesMake use of C2 pointers : No
Read offset correction : 6Overread into Lead-In and Lead-Out : NoFill up missing offset samples with silence : YesDelete leading and trailing silent blocks : NoNull samples used in CRC calculations : YesUsed interface : Native Win32 interface for Win NT & 2000Gap handling : Appended to previous track
Used output format : User Defined EncoderSelected bitrate : 768 kBit/sQuality : HighAdd ID3 tag : NoCommand line compressor : C:\Program Files (x86)\Exact Audio Copy\FLAC\FLAC.EXEAdditional command line options : -V -8 -T "Genre=%genre%" -T "Artist=%artist%" -T "Title=%title%" -T "Album=%albumtitle%" -T "Date=%year%" -T "Tracknumber=%tracknr%" -T "Comment=%comment%" %source%
TOC of the extracted CD
Track | Start | Length | Start sector | End sector --------------------------------------------------------- 1 | 0:00.00 | 3:28.10 | 0 | 15609 2 | 3:28.10 | 3:36.37 | 15610 | 31846 3 | 7:04.47 | 5:05.45 | 31847 | 54766 4 | 12:10.17 | 3:01.51 | 54767 | 68392 5 | 15:11.68 | 3:26.57 | 68393 | 83899 6 | 18:38.50 | 4:38.18 | 83900 | 104767 7 | 23:16.68 | 4:32.38 | 104768 | 125205 8 | 27:49.31 | 4:43.10 | 125206 | 146440 9 | 32:32.41 | 6:42.45 | 146441 | 176635 10 | 39:15.11 | 4:59.10 | 176636 | 199070
Track 1
Filename C:\Tribe - 2003 - Garden (FLAC, lossless)\01 Endures.wav
Pre-gap length 0:00:02.00
Peak level 100.0 % Extraction speed 2.9 X Track quality 99.9 % Test CRC 8180373A Copy CRC 8180373A Track not present in AccurateRip database Copy OK
Track 2
Filename C:\Tribe - 2003 - Garden (FLAC, lossless)\02 Shine.wav
Pre-gap length 0:00:01.37
Peak level 89.8 % Extraction speed 4.1 X Track quality 100.0 % Test CRC BA6535DC Copy CRC BA6535DC Track not present in AccurateRip database Copy OK
Track 3
Filename C:\Tribe - 2003 - Garden (FLAC, lossless)\03 Garden.wav
Pre-gap length 0:00:00.37
Peak level 100.0 % Extraction speed 4.6 X Track quality 100.0 % Test CRC 485F13E4 Copy CRC 485F13E4 Track not present in AccurateRip database Copy OK
Track 4
Filename C:\Tribe - 2003 - Garden (FLAC, lossless)\04 Adore.wav
Pre-gap length 0:00:02.00
Peak level 100.0 % Extraction speed 4.6 X Track quality 100.0 % Test CRC 507E2E45 Copy CRC 507E2E45 Track not present in AccurateRip database Copy OK
Track 5
Filename C:\Tribe - 2003 - Garden (FLAC, lossless)\05 Lamb.wav
Pre-gap length 0:00:00.37
Peak level 95.5 % Extraction speed 4.8 X Track quality 100.0 % Test CRC 18B1BEF0 Copy CRC 18B1BEF0 Track not present in AccurateRip database Copy OK
Track 6
Filename C:\Tribe - 2003 - Garden (FLAC, lossless)\06 Freedom.wav
Pre-gap length 0:00:00.37
Peak level 100.0 % Extraction speed 4.4 X Track quality 99.9 % Test CRC 5D7C216E Copy CRC 5D7C216E Track not present in AccurateRip database Copy OK
Track 7
Filename C:\Tribe - 2003 - Garden (FLAC, lossless)\07 Refine.wav
Pre-gap length 0:00:00.37
Peak level 84.7 % Extraction speed 5.6 X Track quality 100.0 % Test CRC E32ECBB9 Copy CRC E32ECBB9 Track not present in AccurateRip database Copy OK
Track 8
Filename C:\Tribe - 2003 - Garden (FLAC, lossless)\08 Breath.wav
Pre-gap length 0:00:00.37
Peak level 100.0 % Extraction speed 6.0 X Track quality 100.0 % Test CRC 8B7CCF39 Copy CRC 8B7CCF39 Track not present in AccurateRip database Copy OK
Track 9
Filename C:\Tribe - 2003 - Garden (FLAC, lossless)\09 Path.wav
Pre-gap length 0:00:00.37
Peak level 91.2 % Extraction speed 6.5 X Track quality 100.0 % Test CRC 55FBD483 Copy CRC 55FBD483 Track not present in AccurateRip database Copy OK
Track 10
Filename C:\Tribe - 2003 - Garden (FLAC, lossless)\10 Yahweh.wav
Peak level 100.0 % Extraction speed 5.5 X Track quality 99.9 % Test CRC 8C5D11A4 Copy CRC 8C5D11A4 Track not present in AccurateRip database Copy OK
None of the tracks are present in the AccurateRip database
No errors occurred
End of status report

Содержание индексной карты (.CUE)

REM GENRE "Electronica, Tribal, Drums and Chanting, Christian"REM DATE 2003REM DISCID 760A5E0AREM COMMENT "ExactAudioCopy v1.0b3"PERFORMER "Tribe"TITLE "Garden"FILE "01 Endures.wav" WAVE  TRACK 01 AUDIO    TITLE "Endures"    PERFORMER "Tribe"    INDEX 01 00:00:00  TRACK 02 AUDIO    TITLE "Shine"    PERFORMER "Tribe"    INDEX 00 03:26:48FILE "02 Shine.wav" WAVE    INDEX 01 00:00:00  TRACK 03 AUDIO    TITLE "Garden"    PERFORMER "Tribe"    INDEX 00 03:36:00FILE "03 Garden.wav" WAVE    INDEX 01 00:00:00  TRACK 04 AUDIO    TITLE "Adore"    PERFORMER "Tribe"    INDEX 00 05:03:45FILE "04 Adore.wav" WAVE    INDEX 01 00:00:00  TRACK 05 AUDIO    TITLE "Lamb"    PERFORMER "Tribe"    INDEX 00 03:01:14FILE "05 Lamb.wav" WAVE    INDEX 01 00:00:00  TRACK 06 AUDIO    TITLE "Freedom"    PERFORMER "Tribe"    INDEX 00 03:26:20FILE "06 Freedom.wav" WAVE    INDEX 01 00:00:00  TRACK 07 AUDIO    TITLE "Refine"    PERFORMER "Tribe"    INDEX 00 04:37:56FILE "07 Refine.wav" WAVE    INDEX 01 00:00:00  TRACK 08 AUDIO    TITLE "Breath"    PERFORMER "Tribe"    INDEX 00 04:32:01FILE "08 Breath.wav" WAVE    INDEX 01 00:00:00  TRACK 09 AUDIO    TITLE "Path"    PERFORMER "Tribe"    INDEX 00 04:42:48FILE "09 Path.wav" WAVE    INDEX 01 00:00:00FILE "10 Yahweh.wav" WAVE  TRACK 10 AUDIO    TITLE "Yahweh"    PERFORMER "Tribe"    INDEX 01 00:00:00
Вы не можете начинать темы
Вы не можете отвечать на сообщения
Вы не можете редактировать свои сообщения
Вы не можете удалять свои сообщения
Вы не можете голосовать в опросах
Вы не можете прикреплять файлы к сообщениям
Вы можете скачивать файлы
!ВНИМАНИЕ!

Сайт не предоставляет электронные версии произведений, а занимается лишь коллекционированием и каталогизацией ссылок, присылаемых и публикуемых на форуме нашими читателями. Если вы являетесь правообладателем какого-либо представленного материала и не желаете, чтобы ссылка на него находилась в нашем каталоге, свяжитесь с нами, и мы незамедлительно удалим ее. Файлы для обмена на трекере предоставлены пользователями сайта, и администрация не несет ответственности за их содержание. Просьба не заливать файлы, защищенные авторскими правами, а также файлы нелегального содержания!

Искали программы, игры, дополнения, музыка mp3, аниме, аудио книги, журналы? Добро пожаловать на свободный торрент трекер Torrents, у нас можно скачать бесплатно, без смс и регистрации и прочих ограничений лучшие, отборные сборки программ, игр. Скачать торрентом не составит труда даже не опытному пользователю. Раздачи ежедневно обновляются, только лучшие и качественные раздачи, подробные описания и скриншоты. Огромная коллекция программ для работы со звуком, графикой, дизайном, а так же множество плагинов и инструментов к ним с подробной инструкцией и рекомендациями. Прошивки для навигаторов, карты. Разнообразные игры, для Windows, Linux. В коллекцие есть и старые игры любых жанров, Rpg, Action, Shooter, strategy Множество дополнений, модификаций, сценариев для популярных игр в жанре экш, рпг, гонки, стратегии, логические игры. Множество аддонов и сценариев для Microsoft Flight Simulator Большая коллекция книг, учебников. Если нет возможности купить печатное издание - смело скачивайте цифровую версию книги или, быть может, журнала. Не любите читать - можно загрузить бесплатно аудикнигу. Для веб дизайнеров и программистов так же найдется множество специализированного софта, таких как: редакторы с подсветкой, среды программирования, компоненты, системы управления базами данных, разнообразные скрипты и шаблоны. Не так давно у нас появился материал для автолюбителей и владельцев мото - оригинальные и неоригинальные каталоги запчастей, книги и журналы по ремонту и обслуживанию, видеоуроки, статьи по чип тюнингу, прошивкам. Процедура получения контента элементарная, достаточно просто скачать торрент файл и добавить его в загрузку в вашем торрент клиенте. Если у вас нет специального торрент клиента, вы можете его скачать у нас.