Sasami-san Ganbaranai Sub Indo Batch Eps 1-12 Lengkap | HD Shock and Awe | Princess Lover!

(IDM, Techno, Experimental, Ambient) Autechre - EPS 1991 - 2002 (5 CD) - 2011, FLAC (tracks+.cue), lossless 

Цитировать
Autechre - EPS 1991 - 2002--Жанр: IDM, Techno, Experimental, Ambient
Страна-производитель диска: EU
Год издания диска: 2011
Издатель (лейбл): WARP
Номер по каталогу: warpcd211
Страна: UK
Аудиокодек: FLAC (*.flac)
Тип рипа: tracks+.cue
Битрейт аудио: lossless
Общая продолжительность звучания: 05:50:31
Источник (релизер): Stripakulina (Собственные диски)--Наличие сканов в содержимом раздачи: нет--Треклист:

CD1 - Cavity Job, Basscad EP, Anti EP - warpcd21a [01:05:20]

Треклист:
Cavity Job
01. Cavity Job (6:10)
02. Accelera 1 & 2 (6:39)
Basscad EP
03. Basscadet (Bcdtmx) (6:48)
04. Basscadet (Basscadoublemx) (4:26)
05. Basscadet (Tazmx) (6:53)
06. Basscadet (Basscadubmx) (9:37)
Anti EP
07. Lost (7:24)
08. Djarum (7:19)
09. Flutter (9:59)

Лог EAC

Exact Audio Copy V1.1 from 23. June 2015
Отчёт EAC об извлечении, выполненном 30. сентября 2018, 21:54
Autechre / EPs 1991–2002
Дисковод: TSSTcorpCDDVDW SE-208DB Adapter: 1 ID: 0
Режим чтения : ДостоверностьИспользование точного потока : ДаОтключение кэша аудио : ДаИспользование указателей C2 : Нет
Коррекция смещения при чтении : 6Способность читать области Lead-in и Lead-out : ДаЗаполнение пропущенных сэмплов тишиной : ДаУдаление блоков с тишиной в начале и конце : НетПри вычислениях CRC использовались нулевые сэмплы : ДаИнтерфейс : Встроенный Win32-интерфейс для Win NT/2000Обработка зазоров : Добавлено к предыдущему треку
Выходной формат : Пользовательский кодировщикВыбранный битрейт : 1024 kBit/sКачество : ВысокийДобавление ID3-тега : НетУтилита сжатия : D:\Резерв\flac\flac.exeДополнительные параметры : -8 -e -p -V -T "ARTIST=%artist%" -T "TITLE=%title%" -T "ALBUM=%albumtitle%" -T "DATE=%year%" -T "TRACKNUMBER=%tracknr%" -T "GENRE=%genre%" -T "PERFORMER=%albuminterpret%" -T "COMPOSER=%composer%" %haslyrics%--tag-from-file=LYRICS="%lyricsfile%"%haslyrics% -T "ALBUMARTIST=%albumartist%" -T "DISCNUMBER=%cdnumber%" -T "TOTALDISCS=%totalcds%" -T "TOTALTRACKS=%numtracks%" -T "COMMENT=%comment%" %source% -o %dest%
TOC извлечённого CD
Трек | Старт | Длительность | Начальный сектор | Конечный сектор --------------------------------------------------------------------- 1 | 0:00.00 | 6:10.26 | 0 | 27775 2 | 6:10.26 | 6:39.25 | 27776 | 57725 3 | 12:49.51 | 6:48.68 | 57726 | 88393 4 | 19:38.44 | 4:26.37 | 88394 | 108380 5 | 24:05.06 | 6:53.67 | 108381 | 139422 6 | 30:58.73 | 9:37.64 | 139423 | 182761 7 | 40:36.62 | 7:24.37 | 182762 | 216098 8 | 48:01.24 | 7:19.57 | 216099 | 249080 9 | 55:21.06 | 9:59.51 | 249081 | 294056
Трек 1
Имя файла D:\Музыка\Autechre - EPS 1991 - 2002 - (5 CDs) - 2011\CD1 - Cavity Job, Basscad EP, Anti EP - warpcd21a\01. Cavity Job.wav
Длина предзазора 0:00:02.00
Пиковый уровень 83.7 % Скорость извлечения 1.8 X Качество трека 100.0 % CRC теста BD771594 CRC копии BD771594 Точное извлечение (достоверность 43) [54CD5F2E] (AR v2) Копирование... OK
Трек 2
Имя файла D:\Музыка\Autechre - EPS 1991 - 2002 - (5 CDs) - 2011\CD1 - Cavity Job, Basscad EP, Anti EP - warpcd21a\02. Accelera 1 & 2.wav
Длина предзазора 0:00:04.34
Пиковый уровень 83.7 % Скорость извлечения 2.0 X Качество трека 100.0 % CRC теста D701609B CRC копии D701609B Точное извлечение (достоверность 42) [F83A6C14] (AR v2) Копирование... OK
Трек 3
Имя файла D:\Музыка\Autechre - EPS 1991 - 2002 - (5 CDs) - 2011\CD1 - Cavity Job, Basscad EP, Anti EP - warpcd21a\03. Basscadet (Bcdtmx).wav
Длина предзазора 0:00:02.48
Пиковый уровень 99.8 % Скорость извлечения 2.3 X Качество трека 100.0 % CRC теста F6180466 CRC копии F6180466 Точное извлечение (достоверность 43) [70EF9CCA] (AR v2) Копирование... OK
Трек 4
Имя файла D:\Музыка\Autechre - EPS 1991 - 2002 - (5 CDs) - 2011\CD1 - Cavity Job, Basscad EP, Anti EP - warpcd21a\04. Basscadet (Basscadoublemx).wav
Длина предзазора 0:00:00.58
Пиковый уровень 99.5 % Скорость извлечения 2.4 X Качество трека 100.0 % CRC теста A4C97A2E CRC копии A4C97A2E Точное извлечение (достоверность 42) [521139F5] (AR v2) Копирование... OK
Трек 5
Имя файла D:\Музыка\Autechre - EPS 1991 - 2002 - (5 CDs) - 2011\CD1 - Cavity Job, Basscad EP, Anti EP - warpcd21a\05. Basscadet (Tazmx).wav
Длина предзазора 0:00:01.64
Пиковый уровень 100.0 % Скорость извлечения 2.7 X Качество трека 100.0 % CRC теста E34BEF23 CRC копии E34BEF23 Точное извлечение (достоверность 42) [781BF6E3] (AR v2) Копирование... OK
Трек 6
Имя файла D:\Музыка\Autechre - EPS 1991 - 2002 - (5 CDs) - 2011\CD1 - Cavity Job, Basscad EP, Anti EP - warpcd21a\06. Basscadet (Basscadubmx).wav
Пиковый уровень 100.0 % Скорость извлечения 3.0 X Качество трека 100.0 % CRC теста B406974F CRC копии B406974F Точное извлечение (достоверность 43) [4AC76E34] (AR v2) Копирование... OK
Трек 7
Имя файла D:\Музыка\Autechre - EPS 1991 - 2002 - (5 CDs) - 2011\CD1 - Cavity Job, Basscad EP, Anti EP - warpcd21a\07. Lost.wav
Длина предзазора 0:00:01.07
Пиковый уровень 78.8 % Скорость извлечения 3.1 X Качество трека 100.0 % CRC теста FA8E6AF8 CRC копии FA8E6AF8 Точное извлечение (достоверность 43) [5EE2B900] (AR v2) Копирование... OK
Трек 8
Имя файла D:\Музыка\Autechre - EPS 1991 - 2002 - (5 CDs) - 2011\CD1 - Cavity Job, Basscad EP, Anti EP - warpcd21a\08. Djarum.wav
Пиковый уровень 78.8 % Скорость извлечения 3.3 X Качество трека 100.0 % CRC теста 44C54E36 CRC копии 44C54E36 Точное извлечение (достоверность 43) [F81BA0DA] (AR v2) Копирование... OK
Трек 9
Имя файла D:\Музыка\Autechre - EPS 1991 - 2002 - (5 CDs) - 2011\CD1 - Cavity Job, Basscad EP, Anti EP - warpcd21a\09. Flutter.wav
Пиковый уровень 78.8 % Скорость извлечения 3.8 X Качество трека 100.0 % CRC теста 81573810 CRC копии 81573810 Точное извлечение (достоверность 43) [E14CFFD1] (AR v2) Копирование... OK
Все треки извлечены точно
Ошибок не произошло
Конец отчёта
---- CUETools DB Plugin V2.1.6
[CTDB TOCID: ibzrIkWX_Tt35pZHKMfASGSDUmU-] foundSubmit result: ibzrIkWX_Tt35pZHKMfASGSDUmU- has been confirmedTrack | CTDB Status 1 | (80/81) Accurately ripped 2 | (80/81) Accurately ripped 3 | (80/81) Accurately ripped 4 | (80/81) Accurately ripped 5 | (80/81) Accurately ripped 6 | (80/81) Accurately ripped 7 | (81/81) Accurately ripped 8 | (81/81) Accurately ripped 9 | (81/81) Accurately ripped
==== Контрольная сумма отчёта 0E11ACD96D5808281640DCB24371428698B0C58B158DEA602BE4E1A8F75E0E5E ====

.cue

REM GENRE IDMREM DATE 2011REM DISCID 770F5009REM COMMENT "ExactAudioCopy v1.1"PERFORMER "Autechre"TITLE "EPs 1991–2002"FILE "01. Cavity Job.wav" WAVE  TRACK 01 AUDIO    TITLE "Cavity Job"    PERFORMER "Autechre"    ISRC GBBPW1100026    INDEX 01 00:00:00  TRACK 02 AUDIO    TITLE "Accelera 1 & 2"    PERFORMER "Autechre"    ISRC GBBPW1100027    INDEX 00 06:05:67FILE "02. Accelera 1 & 2.wav" WAVE    INDEX 01 00:00:00  TRACK 03 AUDIO    TITLE "Basscadet (Bcdtmx)"    PERFORMER "Autechre"    ISRC GBBPW9400063    INDEX 00 06:36:52FILE "03. Basscadet (Bcdtmx).wav" WAVE    INDEX 01 00:00:00  TRACK 04 AUDIO    TITLE "Basscadet (Basscadoublemx)"    PERFORMER "Autechre"    ISRC GBBPW9400068    INDEX 00 06:48:10FILE "04. Basscadet (Basscadoublemx).wav" WAVE    INDEX 01 00:00:00  TRACK 05 AUDIO    TITLE "Basscadet (Tazmx)"    PERFORMER "Autechre"    ISRC GBBPW9400066    INDEX 00 04:24:48FILE "05. Basscadet (Tazmx).wav" WAVE    INDEX 01 00:00:00FILE "06. Basscadet (Basscadubmx).wav" WAVE  TRACK 06 AUDIO    TITLE "Basscadet (Basscadubmx)"    PERFORMER "Autechre"    ISRC GBBPW9400067    INDEX 01 00:00:00  TRACK 07 AUDIO    TITLE "Lost"    PERFORMER "Autechre"    ISRC GBBPW9400116    INDEX 00 09:36:57FILE "07. Lost.wav" WAVE    INDEX 01 00:00:00FILE "08. Djarum.wav" WAVE  TRACK 08 AUDIO    TITLE "Djarum"    PERFORMER "Autechre"    ISRC GBBPW9400117    INDEX 01 00:00:00FILE "09. Flutter.wav" WAVE  TRACK 09 AUDIO    TITLE "Flutter"    PERFORMER "Autechre"    ISRC GBBPW9400118    INDEX 01 00:00:00

CD 2 - Garbage, Anvil Vapre - warpcd21b [01:15:49]

Треклист:
Garbage
01. Garbagemx (14:11)
02. PIOBmx (7:37)
03. Bronchusevenmx (9:44)
04. VLetrmx (8:27)
Anvil Vapre
05. Second Bad Vilbel (9:46)
06. Second Scepe (7:45)
07. Second Scout (7:22)
08. Second Peng (10:55)

Лог EAC

Exact Audio Copy V1.1 from 23. June 2015
Отчёт EAC об извлечении, выполненном 30. сентября 2018, 20:47
Autechre / EPs 1991–2002
Дисковод: TSSTcorpCDDVDW SE-208DB Adapter: 1 ID: 0
Режим чтения : ДостоверностьИспользование точного потока : ДаОтключение кэша аудио : ДаИспользование указателей C2 : Нет
Коррекция смещения при чтении : 6Способность читать области Lead-in и Lead-out : ДаЗаполнение пропущенных сэмплов тишиной : ДаУдаление блоков с тишиной в начале и конце : НетПри вычислениях CRC использовались нулевые сэмплы : ДаИнтерфейс : Встроенный Win32-интерфейс для Win NT/2000Обработка зазоров : Добавлено к предыдущему треку
Выходной формат : Пользовательский кодировщикВыбранный битрейт : 1024 kBit/sКачество : ВысокийДобавление ID3-тега : НетУтилита сжатия : D:\Резерв\flac\flac.exeДополнительные параметры : -8 -e -p -V -T "ARTIST=%artist%" -T "TITLE=%title%" -T "ALBUM=%albumtitle%" -T "DATE=%year%" -T "TRACKNUMBER=%tracknr%" -T "GENRE=%genre%" -T "PERFORMER=%albuminterpret%" -T "COMPOSER=%composer%" %haslyrics%--tag-from-file=LYRICS="%lyricsfile%"%haslyrics% -T "ALBUMARTIST=%albumartist%" -T "DISCNUMBER=%cdnumber%" -T "TOTALDISCS=%totalcds%" -T "TOTALTRACKS=%numtracks%" -T "COMMENT=%comment%" %source% -o %dest%
TOC извлечённого CD
Трек | Старт | Длительность | Начальный сектор | Конечный сектор --------------------------------------------------------------------- 1 | 0:00.00 | 14:11.40 | 0 | 63864 2 | 14:11.40 | 7:37.01 | 63865 | 98140 3 | 21:48.41 | 9:44.00 | 98141 | 141940 4 | 31:32.41 | 8:27.18 | 141941 | 179983 5 | 39:59.59 | 9:46.69 | 179984 | 224002 6 | 49:46.53 | 7:45.15 | 224003 | 258892 7 | 57:31.68 | 7:22.51 | 258893 | 292093 8 | 64:54.44 | 10:55.11 | 292094 | 341229
Трек 1
Имя файла D:\Музыка\Autechre - EPS 1991 - 2002 - (5 CDs) - 2011\CD2 - Garbage, Anvil Vapre - warpcd21b\01. Garbagemx.wav
Длина предзазора 0:00:02.00
Пиковый уровень 99.2 % Скорость извлечения 2.1 X Качество трека 99.9 % CRC теста D473882B CRC копии D473882B Точное извлечение (достоверность 51) [57E0E470] (AR v2) Копирование... OK
Трек 2
Имя файла D:\Музыка\Autechre - EPS 1991 - 2002 - (5 CDs) - 2011\CD2 - Garbage, Anvil Vapre - warpcd21b\02. PIOBmx.wav
Пиковый уровень 99.2 % Скорость извлечения 2.6 X Качество трека 100.0 % CRC теста 730D4A93 CRC копии 730D4A93 Точное извлечение (достоверность 51) [18FAF35C] (AR v2) Копирование... OK
Трек 3
Имя файла D:\Музыка\Autechre - EPS 1991 - 2002 - (5 CDs) - 2011\CD2 - Garbage, Anvil Vapre - warpcd21b\03. Bronchusevenmx.wav
Пиковый уровень 99.2 % Скорость извлечения 2.6 X Качество трека 99.9 % CRC теста 9D45FB11 CRC копии 9D45FB11 Точное извлечение (достоверность 51) [94FF8BB5] (AR v2) Копирование... OK
Трек 4
Имя файла D:\Музыка\Autechre - EPS 1991 - 2002 - (5 CDs) - 2011\CD2 - Garbage, Anvil Vapre - warpcd21b\04. VLetrmx.wav
Пиковый уровень 99.2 % Скорость извлечения 3.1 X Качество трека 100.0 % CRC теста C0D3346A CRC копии C0D3346A Точное извлечение (достоверность 51) [09E3CF91] (AR v2) Копирование... OK
Трек 5
Имя файла D:\Музыка\Autechre - EPS 1991 - 2002 - (5 CDs) - 2011\CD2 - Garbage, Anvil Vapre - warpcd21b\05. Second Bad Vilbel.wav
Пиковый уровень 99.2 % Скорость извлечения 3.4 X Качество трека 100.0 % CRC теста D045B6AC CRC копии D045B6AC Точное извлечение (достоверность 50) [9CD973B9] (AR v2) Копирование... OK
Трек 6
Имя файла D:\Музыка\Autechre - EPS 1991 - 2002 - (5 CDs) - 2011\CD2 - Garbage, Anvil Vapre - warpcd21b\06. Second Scepe.wav
Пиковый уровень 99.2 % Скорость извлечения 3.5 X Качество трека 100.0 % CRC теста 6CDEFAF4 CRC копии 6CDEFAF4 Точное извлечение (достоверность 50) [AD3AFB81] (AR v2) Копирование... OK
Трек 7
Имя файла D:\Музыка\Autechre - EPS 1991 - 2002 - (5 CDs) - 2011\CD2 - Garbage, Anvil Vapre - warpcd21b\07. Second Scout.wav
Пиковый уровень 99.2 % Скорость извлечения 3.7 X Качество трека 100.0 % CRC теста 1B29CB0C CRC копии 1B29CB0C Точное извлечение (достоверность 50) [FF76BB5E] (AR v2) Копирование... OK
Трек 8
Имя файла D:\Музыка\Autechre - EPS 1991 - 2002 - (5 CDs) - 2011\CD2 - Garbage, Anvil Vapre - warpcd21b\08. Second Peng.wav
Пиковый уровень 99.2 % Скорость извлечения 4.2 X Качество трека 100.0 % CRC теста EBDFDDE3 CRC копии EBDFDDE3 Точное извлечение (достоверность 49) [191167F9] (AR v2) Копирование... OK
Все треки извлечены точно
Ошибок не произошло
Конец отчёта
---- CUETools DB Plugin V2.1.6
[CTDB TOCID: xmlYtgodzLO.fW7Rc.HlmIFrgv0-] foundSubmit result: xmlYtgodzLO.fW7Rc.HlmIFrgv0- has been confirmedTrack | CTDB Status 1 | (79/80) Accurately ripped 2 | (80/80) Accurately ripped 3 | (80/80) Accurately ripped 4 | (80/80) Accurately ripped 5 | (80/80) Accurately ripped 6 | (80/80) Accurately ripped 7 | (79/80) Accurately ripped 8 | (78/80) Accurately ripped
==== Контрольная сумма отчёта 60E6E9FEA12555692087679354060FC9FB4ACC4825BDB16604F9A596A0D780C9 ====

.cue

REM GENRE IDMREM DATE 2011REM DISCID 7811C508REM COMMENT "ExactAudioCopy v1.1"PERFORMER "Autechre"TITLE "EPs 1991–2002"FILE "01. Garbagemx.wav" WAVE  TRACK 01 AUDIO    TITLE "Garbagemx"    PERFORMER "Autechre"    ISRC GBBPW9500024    INDEX 01 00:00:00FILE "02. PIOBmx.wav" WAVE  TRACK 02 AUDIO    TITLE "PIOBmx"    PERFORMER "Autechre"    ISRC GBBPW9500024    INDEX 01 00:00:00FILE "03. Bronchusevenmx.wav" WAVE  TRACK 03 AUDIO    TITLE "Bronchusevenmx"    PERFORMER "Autechre"    ISRC GBBPW9500026    INDEX 01 00:00:00FILE "04. VLetrmx.wav" WAVE  TRACK 04 AUDIO    TITLE "VLetrmx"    PERFORMER "Autechre"    ISRC GBBPW9500027    INDEX 01 00:00:00FILE "05. Second Bad Vilbel.wav" WAVE  TRACK 05 AUDIO    TITLE "Second Bad Vilbel"    PERFORMER "Autechre"    ISRC GBBPW9500167    INDEX 01 00:00:00FILE "06. Second Scepe.wav" WAVE  TRACK 06 AUDIO    TITLE "Second Scepe"    PERFORMER "Autechre"    ISRC GBBPW9500168    INDEX 01 00:00:00FILE "07. Second Scout.wav" WAVE  TRACK 07 AUDIO    TITLE "Second Scout"    PERFORMER "Autechre"    ISRC GBBPW9500169    INDEX 01 00:00:00FILE "08. Second Peng.wav" WAVE  TRACK 08 AUDIO    TITLE "Second Peng"    PERFORMER "Autechre"    ISRC GBBPW9500170    INDEX 01 00:00:00

CD 3 - Peel Session, Envane - warpcd21c [01:00:48]

Треклист:
Peel Session
01. Milk DX (6:05)
02. Inhake 2 (8:36)
03. Drane (10:49)
Envane
04. Goz Quarter (9:42)
05. Latent Quarter (7:37)
06. Laughing Quarter (7:05)
07. Draun Quarter (10:52)

Лог EAC

Exact Audio Copy V1.1 from 23. June 2015
Отчёт EAC об извлечении, выполненном 30. сентября 2018, 19:33
Autechre / EPs 1991–2002
Дисковод: TSSTcorpCDDVDW SE-208DB Adapter: 1 ID: 0
Режим чтения : ДостоверностьИспользование точного потока : ДаОтключение кэша аудио : ДаИспользование указателей C2 : Нет
Коррекция смещения при чтении : 6Способность читать области Lead-in и Lead-out : ДаЗаполнение пропущенных сэмплов тишиной : ДаУдаление блоков с тишиной в начале и конце : НетПри вычислениях CRC использовались нулевые сэмплы : ДаИнтерфейс : Встроенный Win32-интерфейс для Win NT/2000Обработка зазоров : Добавлено к предыдущему треку
Выходной формат : Пользовательский кодировщикВыбранный битрейт : 1024 kBit/sКачество : ВысокийДобавление ID3-тега : НетУтилита сжатия : D:\Резерв\flac\flac.exeДополнительные параметры : -8 -e -p -V -T "ARTIST=%artist%" -T "TITLE=%title%" -T "ALBUM=%albumtitle%" -T "DATE=%year%" -T "TRACKNUMBER=%tracknr%" -T "GENRE=%genre%" -T "PERFORMER=%albuminterpret%" -T "COMPOSER=%composer%" %haslyrics%--tag-from-file=LYRICS="%lyricsfile%"%haslyrics% -T "ALBUMARTIST=%albumartist%" -T "DISCNUMBER=%cdnumber%" -T "TOTALDISCS=%totalcds%" -T "TOTALTRACKS=%numtracks%" -T "COMMENT=%comment%" %source% -o %dest%
TOC извлечённого CD
Трек | Старт | Длительность | Начальный сектор | Конечный сектор --------------------------------------------------------------------- 1 | 0:00.00 | 6:05.04 | 0 | 27378 2 | 6:05.04 | 8:36.22 | 27379 | 66100 3 | 14:41.26 | 10:49.21 | 66101 | 114796 4 | 25:30.47 | 9:42.67 | 114797 | 158513 5 | 35:13.39 | 7:37.26 | 158514 | 192814 6 | 42:50.65 | 7:05.04 | 192815 | 224693 7 | 49:55.69 | 10:52.68 | 224694 | 273661
Трек 1
Имя файла D:\Музыка\Autechre - EPS 1991 - 2002 - (5 CDs) - 2011\CD3 - Peel Session, Envane - warpcd21c\01. Milk DX.wav
Длина предзазора 0:00:02.00
Пиковый уровень 97.9 % Скорость извлечения 1.1 X Качество трека 100.0 % CRC теста 3033FE3D CRC копии 3033FE3D Точное извлечение (достоверность 51) [F6D86BC0] (AR v2) Копирование... OK
Трек 2
Имя файла D:\Музыка\Autechre - EPS 1991 - 2002 - (5 CDs) - 2011\CD3 - Peel Session, Envane - warpcd21c\02. Inhake 2.wav
Пиковый уровень 97.9 % Скорость извлечения 1.3 X Качество трека 100.0 % CRC теста 4A4C7591 CRC копии 4A4C7591 Точное извлечение (достоверность 51) [912961CC] (AR v2) Копирование... OK
Трек 3
Имя файла D:\Музыка\Autechre - EPS 1991 - 2002 - (5 CDs) - 2011\CD3 - Peel Session, Envane - warpcd21c\03. Drane.wav
Пиковый уровень 97.9 % Скорость извлечения 1.5 X Качество трека 100.0 % CRC теста 5EBEAC65 CRC копии 5EBEAC65 Точное извлечение (достоверность 51) [ED8874C3] (AR v2) Копирование... OK
Трек 4
Имя файла D:\Музыка\Autechre - EPS 1991 - 2002 - (5 CDs) - 2011\CD3 - Peel Session, Envane - warpcd21c\04. Goz Quarter.wav
Пиковый уровень 99.2 % Скорость извлечения 1.6 X Качество трека 100.0 % CRC теста D0F048F6 CRC копии D0F048F6 Точное извлечение (достоверность 51) [2F0285B1] (AR v2) Копирование... OK
Трек 5
Имя файла D:\Музыка\Autechre - EPS 1991 - 2002 - (5 CDs) - 2011\CD3 - Peel Session, Envane - warpcd21c\05. Latent Quarter.wav
Пиковый уровень 99.2 % Скорость извлечения 1.7 X Качество трека 100.0 % CRC теста 56C0A545 CRC копии 56C0A545 Точное извлечение (достоверность 50) [337C578C] (AR v2) Копирование... OK
Трек 6
Имя файла D:\Музыка\Autechre - EPS 1991 - 2002 - (5 CDs) - 2011\CD3 - Peel Session, Envane - warpcd21c\06. Laughing Quarter.wav
Пиковый уровень 96.3 % Скорость извлечения 1.8 X Качество трека 100.0 % CRC теста 244DF65E CRC копии 244DF65E Точное извлечение (достоверность 51) [5C2B2A27] (AR v2) Копирование... OK
Трек 7
Имя файла D:\Музыка\Autechre - EPS 1991 - 2002 - (5 CDs) - 2011\CD3 - Peel Session, Envane - warpcd21c\07. Draun Quarter.wav
Пиковый уровень 95.7 % Скорость извлечения 2.1 X Качество трека 100.0 % CRC теста FB59DBAA CRC копии FB59DBAA Точное извлечение (достоверность 51) [312E15AF] (AR v2) Копирование... OK
Все треки извлечены точно
Ошибок не произошло
Конец отчёта
---- CUETools DB Plugin V2.1.6
[CTDB TOCID: IdZvk56VLqA2sfXsLnhnDK_K57I-] foundSubmit result: IdZvk56VLqA2sfXsLnhnDK_K57I- has been confirmedTrack | CTDB Status 1 | (83/83) Accurately ripped 2 | (83/83) Accurately ripped 3 | (83/83) Accurately ripped 4 | (82/83) Accurately ripped 5 | (83/83) Accurately ripped 6 | (83/83) Accurately ripped 7 | (83/83) Accurately ripped
==== Контрольная сумма отчёта C33E66B31634F1CFEF329322CF2990473302A56940F1804CE7F92808C741B9C8 ====

.cue

REM GENRE IDMREM DATE 2011REM DISCID 640E4007REM COMMENT "ExactAudioCopy v1.1"PERFORMER "Autechre"TITLE "EPs 1991–2002"FILE "01. Milk DX.wav" WAVE  TRACK 01 AUDIO    TITLE "Milk DX"    PERFORMER "Autechre"    ISRC GBBPW9900011    INDEX 01 00:00:00FILE "02. Inhake 2.wav" WAVE  TRACK 02 AUDIO    TITLE "Inhake 2"    PERFORMER "Autechre"    ISRC GBBPW9900012    INDEX 01 00:00:00FILE "03. Drane.wav" WAVE  TRACK 03 AUDIO    TITLE "Drane"    PERFORMER "Autechre"    ISRC GBBPW9900013    INDEX 01 00:00:00FILE "04. Goz Quarter.wav" WAVE  TRACK 04 AUDIO    TITLE "Goz Quarter"    PERFORMER "Autechre"    ISRC GBBPW9700005    INDEX 01 00:00:00FILE "05. Latent Quarter.wav" WAVE  TRACK 05 AUDIO    TITLE "Latent Quarter"    PERFORMER "Autechre"    ISRC GBBPW9700005    INDEX 01 00:00:00FILE "06. Laughing Quarter.wav" WAVE  TRACK 06 AUDIO    TITLE "Laughing Quarter"    PERFORMER "Autechre"    ISRC GBBPW9700007    INDEX 01 00:00:00FILE "07. Draun Quarter.wav" WAVE  TRACK 07 AUDIO    TITLE "Draun Quarter"    PERFORMER "Autechre"    ISRC GBBPW9700008    INDEX 01 00:00:00

CD 4 - Cichlisuite, EP 7 - warpcd21d [01:17:10]

Треклист:
Cichlisuite
00. [untitled] HTOA (9:58)
01. Yeesland (6:22)
02. Pencha (6:13)
03. Characi (7:23)
04. Krib (3:11)
05. Tilapia (6:14)
EP7
06. Rpeg (6:00)
07. Ccec (4:58)
08. Squeller (4:37)
09. Left Blank (6:40)
10. Outpt (7:12)
11. Dropp (3:16)
12. Liccflii (4:59)

Лог EAC

Exact Audio Copy V1.1 from 23. June 2015
Отчёт EAC об извлечении, выполненном 30. сентября 2018, 15:58
Autechre / EPs 1991–2002
Дисковод: TSSTcorpCDDVDW SE-208DB Adapter: 1 ID: 0
Режим чтения : ДостоверностьИспользование точного потока : ДаОтключение кэша аудио : ДаИспользование указателей C2 : Нет
Коррекция смещения при чтении : 6Способность читать области Lead-in и Lead-out : ДаЗаполнение пропущенных сэмплов тишиной : ДаУдаление блоков с тишиной в начале и конце : НетПри вычислениях CRC использовались нулевые сэмплы : ДаИнтерфейс : Встроенный Win32-интерфейс для Win NT/2000Обработка зазоров : Добавлено к предыдущему треку
Выходной формат : Пользовательский кодировщикВыбранный битрейт : 1024 kBit/sКачество : ВысокийДобавление ID3-тега : НетУтилита сжатия : D:\Резерв\flac\flac.exeДополнительные параметры : -8 -e -p -V -T "ARTIST=%artist%" -T "TITLE=%title%" -T "ALBUM=%albumtitle%" -T "DATE=%year%" -T "TRACKNUMBER=%tracknr%" -T "GENRE=%genre%" -T "PERFORMER=%albuminterpret%" -T "COMPOSER=%composer%" %haslyrics%--tag-from-file=LYRICS="%lyricsfile%"%haslyrics% -T "ALBUMARTIST=%albumartist%" -T "DISCNUMBER=%cdnumber%" -T "TOTALDISCS=%totalcds%" -T "TOTALTRACKS=%numtracks%" -T "COMMENT=%comment%" %source% -o %dest%
TOC извлечённого CD
Трек | Старт | Длительность | Начальный сектор | Конечный сектор --------------------------------------------------------------------- 1 | 9:58.00 | 6:22.69 | 44850 | 73568 2 | 16:20.69 | 6:13.74 | 73569 | 101617 3 | 22:34.68 | 7:23.31 | 101618 | 134873 4 | 29:58.24 | 3:11.14 | 134874 | 149212 5 | 33:09.38 | 6:14.55 | 149213 | 177317 6 | 39:24.18 | 6:00.33 | 177318 | 204350 7 | 45:24.51 | 4:58.74 | 204351 | 226774 8 | 50:23.50 | 4:37.57 | 226775 | 247606 9 | 55:01.32 | 6:40.19 | 247607 | 277625 10 | 61:41.51 | 7:12.02 | 277626 | 310027 11 | 68:53.53 | 3:16.44 | 310028 | 324771 12 | 72:10.22 | 4:59.72 | 324772 | 347268
Трек 1
Имя файла D:\Музыка\Autechre - EPS 1991 - 2002 - (5 CDs) - 2011\CD4\01. Yeesland.wav
Длина предзазора 0:10:00.00
Пиковый уровень 97.9 % Скорость извлечения 2.4 X Качество трека 100.0 % CRC теста 5042929C CRC копии 5042929C Точное извлечение (достоверность 50) [0C41D542] (AR v2) Копирование... OK
Трек 2
Имя файла D:\Музыка\Autechre - EPS 1991 - 2002 - (5 CDs) - 2011\CD4\02. Pencha.wav
Пиковый уровень 97.9 % Скорость извлечения 2.6 X Качество трека 100.0 % CRC теста D5B7702A CRC копии D5B7702A Точное извлечение (достоверность 49) [E7A1F734] (AR v2) Копирование... OK
Трек 3
Имя файла D:\Музыка\Autechre - EPS 1991 - 2002 - (5 CDs) - 2011\CD4\03. Characi.wav
Пиковый уровень 97.9 % Скорость извлечения 2.9 X Качество трека 100.0 % CRC теста 3B2F8A72 CRC копии 3B2F8A72 Точное извлечение (достоверность 49) [C5E0E634] (AR v2) Копирование... OK
Трек 4
Имя файла D:\Музыка\Autechre - EPS 1991 - 2002 - (5 CDs) - 2011\CD4\04. Krib.wav
Пиковый уровень 97.2 % Скорость извлечения 2.7 X Качество трека 100.0 % CRC теста BAFB21FD CRC копии BAFB21FD Точное извлечение (достоверность 49) [334ADE67] (AR v2) Копирование... OK
Трек 5
Имя файла D:\Музыка\Autechre - EPS 1991 - 2002 - (5 CDs) - 2011\CD4\05. Tilapia.wav
Пиковый уровень 97.9 % Скорость извлечения 3.1 X Качество трека 100.0 % CRC теста 42D9963B CRC копии 42D9963B Точное извлечение (достоверность 49) [A5D36AC1] (AR v2) Копирование... OK
Трек 6
Имя файла D:\Музыка\Autechre - EPS 1991 - 2002 - (5 CDs) - 2011\CD4\06. Rpeg.wav
Пиковый уровень 97.9 % Скорость извлечения 3.2 X Качество трека 100.0 % CRC теста 833181BB CRC копии 833181BB Точное извлечение (достоверность 48) [C3ADA064] (AR v2) Копирование... OK
Трек 7
Имя файла D:\Музыка\Autechre - EPS 1991 - 2002 - (5 CDs) - 2011\CD4\07. Ccec.wav
Пиковый уровень 97.9 % Скорость извлечения 3.3 X Качество трека 100.0 % CRC теста 796B3F82 CRC копии 796B3F82 Точное извлечение (достоверность 48) [18D5160D] (AR v2) Копирование... OK
Трек 8
Имя файла D:\Музыка\Autechre - EPS 1991 - 2002 - (5 CDs) - 2011\CD4\08. Squeller.wav
Пиковый уровень 97.9 % Скорость извлечения 3.4 X Качество трека 100.0 % CRC теста 614981C3 CRC копии 614981C3 Точное извлечение (достоверность 48) [05DF52FB] (AR v2) Копирование... OK
Трек 9
Имя файла D:\Музыка\Autechre - EPS 1991 - 2002 - (5 CDs) - 2011\CD4\09. Left Blank.wav
Пиковый уровень 97.9 % Скорость извлечения 3.6 X Качество трека 100.0 % CRC теста 3E761FA9 CRC копии 3E761FA9 Точное извлечение (достоверность 48) [2A2673DE] (AR v2) Копирование... OK
Трек 10
Имя файла D:\Музыка\Autechre - EPS 1991 - 2002 - (5 CDs) - 2011\CD4\10. Outpt.wav
Пиковый уровень 97.9 % Скорость извлечения 3.8 X Качество трека 100.0 % CRC теста F413AB57 CRC копии F413AB57 Точное извлечение (достоверность 48) [674DCF04] (AR v2) Копирование... OK
Трек 11
Имя файла D:\Музыка\Autechre - EPS 1991 - 2002 - (5 CDs) - 2011\CD4\11. Dropp.wav
Пиковый уровень 97.9 % Скорость извлечения 3.6 X Качество трека 100.0 % CRC теста 6507A9A7 CRC копии 6507A9A7 Точное извлечение (достоверность 48) [C0FAF2AA] (AR v2) Копирование... OK
Трек 12
Имя файла D:\Музыка\Autechre - EPS 1991 - 2002 - (5 CDs) - 2011\CD4\12. Liccflii.wav
Пиковый уровень 97.9 % Скорость извлечения 4.3 X Качество трека 100.0 % CRC теста 7CE1DF5D CRC копии 7CE1DF5D Точное извлечение (достоверность 47) [C02C200E] (AR v2) Копирование... OK
Все треки извлечены точно
Ошибок не произошло
Конец отчёта
---- CUETools DB Plugin V2.1.6
[CTDB TOCID: rGTKLSTbBwyrt2.PXhVP0sAZCs4-] foundSubmit result: already submittedTrack | CTDB Status 1 | (61/61) Accurately ripped 2 | (61/61) Accurately ripped 3 | (61/61) Accurately ripped 4 | (61/61) Accurately ripped 5 | (60/61) Accurately ripped 6 | (61/61) Accurately ripped 7 | (61/61) Accurately ripped 8 | (61/61) Accurately ripped 9 | (61/61) Accurately ripped 10 | (61/61) Accurately ripped 11 | (61/61) Accurately ripped 12 | (60/61) Accurately ripped
==== Контрольная сумма отчёта CA56C78E47C0E3834A83981D2746F21812F970DFF083C42800E02CF2B5DAC788 ====

HTOA log

Exact Audio Copy V1.1 from 23. June 2015
Отчёт EAC об извлечении, выполненном 30. сентября 2018, 13:57
Autechre / EPs 1991–2002
Дисковод: TSSTcorpCDDVDW SE-208DB Adapter: 1 ID: 0
Режим чтения : ДостоверностьИспользование точного потока : ДаОтключение кэша аудио : ДаИспользование указателей C2 : Нет
Коррекция смещения при чтении : 6Способность читать области Lead-in и Lead-out : ДаЗаполнение пропущенных сэмплов тишиной : ДаУдаление блоков с тишиной в начале и конце : НетПри вычислениях CRC использовались нулевые сэмплы : ДаИнтерфейс : Встроенный Win32-интерфейс для Win NT/2000
Выходной формат : Внутренние WAV-операцииФормат сэмплов : 44.100 Гц; 16 бит; стерео
TOC извлечённого CD
Трек | Старт | Длительность | Начальный сектор | Конечный сектор --------------------------------------------------------------------- 1 | 9:58.00 | 6:22.69 | 44850 | 73568 2 | 16:20.69 | 6:13.74 | 73569 | 101617 3 | 22:34.68 | 7:23.31 | 101618 | 134873 4 | 29:58.24 | 3:11.14 | 134874 | 149212 5 | 33:09.38 | 6:14.55 | 149213 | 177317 6 | 39:24.18 | 6:00.33 | 177318 | 204350 7 | 45:24.51 | 4:58.74 | 204351 | 226774 8 | 50:23.50 | 4:37.57 | 226775 | 247606 9 | 55:01.32 | 6:40.19 | 247607 | 277625 10 | 61:41.51 | 7:12.02 | 277626 | 310027 11 | 68:53.53 | 3:16.44 | 310028 | 324771 12 | 72:10.22 | 4:59.72 | 324772 | 347268
Характеристики диапазона извлечения и сообщения об ошибках
Выбранный диапазон (Секторы 0-44849)
Имя файла D:\Музыка\Autechre - EPS 1991 - 2002 - (5 CDs) - 2011\CD4\00. [untitled] HTOA.wav
Пиковый уровень 97.9 % Скорость извлечения 0.6 X Качество диапазона 99.6 % CRC копии 11799C78 Копирование... OK
Ошибок не произошло
AccurateRip: сводка
Ни один трек не прошёл проверки на точность
Конец отчёта
==== Контрольная сумма отчёта 3AE64BF4674FD206D660894D4570304A0ADF2C3B685CCFD5808174861E847BC8 ====
------------------------------------------------------------
Exact Audio Copy V1.1 from 23. June 2015
Отчёт EAC об извлечении, выполненном 30. сентября 2018, 14:16
Autechre / EPs 1991–2002
Дисковод: TSSTcorpCDDVDW SE-208DB Adapter: 1 ID: 0
Режим чтения : ДостоверностьИспользование точного потока : ДаОтключение кэша аудио : ДаИспользование указателей C2 : Нет
Коррекция смещения при чтении : 6Способность читать области Lead-in и Lead-out : ДаЗаполнение пропущенных сэмплов тишиной : ДаУдаление блоков с тишиной в начале и конце : НетПри вычислениях CRC использовались нулевые сэмплы : ДаИнтерфейс : Встроенный Win32-интерфейс для Win NT/2000
Выходной формат : Пользовательский кодировщикВыбранный битрейт : 1024 kBit/sКачество : ВысокийДобавление ID3-тега : НетУтилита сжатия : D:\Резерв\flac\flac.exeДополнительные параметры : -8 -e -p -V -T "ARTIST=%artist%" -T "TITLE=%title%" -T "ALBUM=%albumtitle%" -T "DATE=%year%" -T "TRACKNUMBER=%tracknr%" -T "GENRE=%genre%" -T "PERFORMER=%albuminterpret%" -T "COMPOSER=%composer%" %haslyrics%--tag-from-file=LYRICS="%lyricsfile%"%haslyrics% -T "ALBUMARTIST=%albumartist%" -T "DISCNUMBER=%cdnumber%" -T "TOTALDISCS=%totalcds%" -T "TOTALTRACKS=%numtracks%" -T "COMMENT=%comment%" %source% -o %dest%
TOC извлечённого CD
Трек | Старт | Длительность | Начальный сектор | Конечный сектор --------------------------------------------------------------------- 1 | 9:58.00 | 6:22.69 | 44850 | 73568 2 | 16:20.69 | 6:13.74 | 73569 | 101617 3 | 22:34.68 | 7:23.31 | 101618 | 134873 4 | 29:58.24 | 3:11.14 | 134874 | 149212 5 | 33:09.38 | 6:14.55 | 149213 | 177317 6 | 39:24.18 | 6:00.33 | 177318 | 204350 7 | 45:24.51 | 4:58.74 | 204351 | 226774 8 | 50:23.50 | 4:37.57 | 226775 | 247606 9 | 55:01.32 | 6:40.19 | 247607 | 277625 10 | 61:41.51 | 7:12.02 | 277626 | 310027 11 | 68:53.53 | 3:16.44 | 310028 | 324771 12 | 72:10.22 | 4:59.72 | 324772 | 347268
Характеристики диапазона извлечения и сообщения об ошибках
Выбранный диапазон (Секторы 0-44849)
Имя файла D:\Музыка\Autechre - EPS 1991 - 2002 - (5 CDs) - 2011\CD4\00. [untitled] HTOA.wav
Пиковый уровень 97.9 % Скорость извлечения 0.7 X Качество диапазона 99.6 % CRC копии 11799C78 Копирование... OK
Ошибок не произошло
AccurateRip: сводка
Ни один трек не прошёл проверки на точность
Конец отчёта
==== Контрольная сумма отчёта 4F7482F9695D994E1D439899E81FF14C6F007A9F70806ADA06A4A154BD700656 ====

.cue

REM GENRE IDMREM DATE 2011REM DISCID A00FC00CREM COMMENT "ExactAudioCopy v1.1"PERFORMER "Autechre"TITLE "EPs 1991–2002"FILE "01. Yeesland.wav" WAVE  TRACK 01 AUDIO    TITLE "Yeesland"    PERFORMER "Autechre"    ISRC GBBPW9700068    PREGAP 09:58:00    INDEX 01 00:00:00FILE "02. Pencha.wav" WAVE  TRACK 02 AUDIO    TITLE "Pencha"    PERFORMER "Autechre"    ISRC GBBPW9700069    INDEX 01 00:00:00FILE "03. Characi.wav" WAVE  TRACK 03 AUDIO    TITLE "Characi"    PERFORMER "Autechre"    ISRC GBBPW9700070    INDEX 01 00:00:00FILE "04. Krib.wav" WAVE  TRACK 04 AUDIO    TITLE "Krib"    PERFORMER "Autechre"    ISRC GBBPW9700071    INDEX 01 00:00:00FILE "05. Tilapia.wav" WAVE  TRACK 05 AUDIO    TITLE "Tilapia"    PERFORMER "Autechre"    ISRC GBBPW9700072    INDEX 01 00:00:00FILE "06. Rpeg.wav" WAVE  TRACK 06 AUDIO    TITLE "Rpeg"    PERFORMER "Autechre"    ISRC GBBPW9900058    INDEX 01 00:00:00FILE "07. Ccec.wav" WAVE  TRACK 07 AUDIO    TITLE "Ccec"    PERFORMER "Autechre"    ISRC GBBPW9900059    INDEX 01 00:00:00FILE "08. Squeller.wav" WAVE  TRACK 08 AUDIO    TITLE "Squeller"    PERFORMER "Autechre"    ISRC GBBPW9900060    INDEX 01 00:00:00FILE "09. Left Blank.wav" WAVE  TRACK 09 AUDIO    TITLE "Left Blank"    PERFORMER "Autechre"    ISRC GBBPW9900061    INDEX 01 00:00:00FILE "10. Outpt.wav" WAVE  TRACK 10 AUDIO    TITLE "Outpt"    PERFORMER "Autechre"    ISRC GBBPW9900062    INDEX 01 00:00:00FILE "11. Dropp.wav" WAVE  TRACK 11 AUDIO    TITLE "Dropp"    PERFORMER "Autechre"    ISRC GBBPW9900063    INDEX 01 00:00:00FILE "12. Liccflii.wav" WAVE  TRACK 12 AUDIO    TITLE "Liccflii"    PERFORMER "Autechre"    ISRC GBBPW9900064    INDEX 01 00:00:00

.cue+HTOA

REM GENRE IDMREM DATE 2011REM DISCID A00FC00CREM COMMENT "ExactAudioCopy v1.1"PERFORMER "Autechre"TITLE "EPs 1991–2002"FILE "00. [untitled] HTOA.wav" WAVE  TRACK 01 AUDIO    TITLE "Yeesland"    PERFORMER "Autechre"    ISRC GBBPW9700068    INDEX 00 00:00:00FILE "01. Yeesland.wav" WAVE    INDEX 01 00:00:00FILE "02. Pencha.wav" WAVE  TRACK 02 AUDIO    TITLE "Pencha"    PERFORMER "Autechre"    ISRC GBBPW9700069    INDEX 01 00:00:00FILE "03. Characi.wav" WAVE  TRACK 03 AUDIO    TITLE "Characi"    PERFORMER "Autechre"    ISRC GBBPW9700070    INDEX 01 00:00:00FILE "04. Krib.wav" WAVE  TRACK 04 AUDIO    TITLE "Krib"    PERFORMER "Autechre"    ISRC GBBPW9700071    INDEX 01 00:00:00FILE "05. Tilapia.wav" WAVE  TRACK 05 AUDIO    TITLE "Tilapia"    PERFORMER "Autechre"    ISRC GBBPW9700072    INDEX 01 00:00:00FILE "06. Rpeg.wav" WAVE  TRACK 06 AUDIO    TITLE "Rpeg"    PERFORMER "Autechre"    ISRC GBBPW9900058    INDEX 01 00:00:00FILE "07. Ccec.wav" WAVE  TRACK 07 AUDIO    TITLE "Ccec"    PERFORMER "Autechre"    ISRC GBBPW9900059    INDEX 01 00:00:00FILE "08. Squeller.wav" WAVE  TRACK 08 AUDIO    TITLE "Squeller"    PERFORMER "Autechre"    ISRC GBBPW9900060    INDEX 01 00:00:00FILE "09. Left Blank.wav" WAVE  TRACK 09 AUDIO    TITLE "Left Blank"    PERFORMER "Autechre"    ISRC GBBPW9900061    INDEX 01 00:00:00FILE "10. Outpt.wav" WAVE  TRACK 10 AUDIO    TITLE "Outpt"    PERFORMER "Autechre"    ISRC GBBPW9900062    INDEX 01 00:00:00FILE "11. Dropp.wav" WAVE  TRACK 11 AUDIO    TITLE "Dropp"    PERFORMER "Autechre"    ISRC GBBPW9900063    INDEX 01 00:00:00FILE "12. Liccflii.wav" WAVE  TRACK 12 AUDIO    TITLE "Liccflii"    PERFORMER "Autechre"    ISRC GBBPW9900064    INDEX 01 00:00:00

CD 5 - EP 7, Peel Session 2, Gantz_Graf - warpcd21e [01:11:21]

Треклист:
01. Maphive6.1 (8:19)
02. Zeiss Contarex (6:33)
03. Netlon Sentinel (4:06)
04. Pir (3:32)
Peel Session 2
05. Gelk (8:50)
06. Blifil (7:00)
07. Gaekwad (6:25)
08. 19 Headaches (7:14)
Gantz_Graf
09. Gantz_Graf (3:57)
10. Dial. (6:17)
11. Cap.IV (9:04)

Лог EAC

Exact Audio Copy V1.1 from 23. June 2015
Отчёт EAC об извлечении, выполненном 30. сентября 2018, 17:52
Autechre / EPs 1991–2002
Дисковод: TSSTcorpCDDVDW SE-208DB Adapter: 1 ID: 0
Режим чтения : ДостоверностьИспользование точного потока : ДаОтключение кэша аудио : ДаИспользование указателей C2 : Нет
Коррекция смещения при чтении : 6Способность читать области Lead-in и Lead-out : ДаЗаполнение пропущенных сэмплов тишиной : ДаУдаление блоков с тишиной в начале и конце : НетПри вычислениях CRC использовались нулевые сэмплы : ДаИнтерфейс : Встроенный Win32-интерфейс для Win NT/2000Обработка зазоров : Добавлено к предыдущему треку
Выходной формат : Пользовательский кодировщикВыбранный битрейт : 1024 kBit/sКачество : ВысокийДобавление ID3-тега : НетУтилита сжатия : D:\Резерв\flac\flac.exeДополнительные параметры : -8 -e -p -V -T "ARTIST=%artist%" -T "TITLE=%title%" -T "ALBUM=%albumtitle%" -T "DATE=%year%" -T "TRACKNUMBER=%tracknr%" -T "GENRE=%genre%" -T "PERFORMER=%albuminterpret%" -T "COMPOSER=%composer%" %haslyrics%--tag-from-file=LYRICS="%lyricsfile%"%haslyrics% -T "ALBUMARTIST=%albumartist%" -T "DISCNUMBER=%cdnumber%" -T "TOTALDISCS=%totalcds%" -T "TOTALTRACKS=%numtracks%" -T "COMMENT=%comment%" %source% -o %dest%
TOC извлечённого CD
Трек | Старт | Длительность | Начальный сектор | Конечный сектор --------------------------------------------------------------------- 1 | 0:00.00 | 8:19.34 | 0 | 37458 2 | 8:19.34 | 6:33.25 | 37459 | 66958 3 | 14:52.59 | 4:06.00 | 66959 | 85408 4 | 18:58.59 | 3:32.06 | 85409 | 101314 5 | 22:30.65 | 8:50.64 | 101315 | 141128 6 | 31:21.54 | 7:00.60 | 141129 | 172688 7 | 38:22.39 | 6:25.27 | 172689 | 201590 8 | 44:47.66 | 7:14.23 | 201591 | 234163 9 | 52:02.14 | 3:57.74 | 234164 | 252012 10 | 56:00.13 | 6:17.10 | 252013 | 280297 11 | 62:17.23 | 9:04.27 | 280298 | 321124
Трек 1
Имя файла D:\Музыка\Autechre - EPS 1991 - 2002 - (5 CDs) - 2011\CD5\01. Maphive6.1.wav
Длина предзазора 0:00:02.00
Пиковый уровень 97.9 % Скорость извлечения 1.9 X Качество трека 100.0 % CRC теста 01F79A19 CRC копии 01F79A19 Точное извлечение (достоверность 47) [D5911583] (AR v2) Копирование... OK
Трек 2
Имя файла D:\Музыка\Autechre - EPS 1991 - 2002 - (5 CDs) - 2011\CD5\02. Zeiss Contarex.wav
Пиковый уровень 97.9 % Скорость извлечения 2.2 X Качество трека 100.0 % CRC теста 50FEE0A8 CRC копии 50FEE0A8 Точное извлечение (достоверность 47) [A19C6A2E] (AR v2) Копирование... OK
Трек 3
Имя файла D:\Музыка\Autechre - EPS 1991 - 2002 - (5 CDs) - 2011\CD5\03. Netlon Sentinel.wav
Пиковый уровень 97.9 % Скорость извлечения 1.8 X Качество трека 99.9 % CRC теста 2E2966AB CRC копии 2E2966AB Точное извлечение (достоверность 47) [59BAEC6D] (AR v2) Копирование... OK
Трек 4
Имя файла D:\Музыка\Autechre - EPS 1991 - 2002 - (5 CDs) - 2011\CD5\04. Pir.wav
Пиковый уровень 97.9 % Скорость извлечения 2.3 X Качество трека 100.0 % CRC теста 733701B0 CRC копии 733701B0 Точное извлечение (достоверность 47) [D19F1435] (AR v2) Копирование... OK
Трек 5
Имя файла D:\Музыка\Autechre - EPS 1991 - 2002 - (5 CDs) - 2011\CD5\05. Gelk.wav
Пиковый уровень 91.0 % Скорость извлечения 2.4 X Качество трека 99.9 % CRC теста 39BA079E CRC копии 39BA079E Точное извлечение (достоверность 48) [498114CB] (AR v2) Копирование... OK
Трек 6
Имя файла D:\Музыка\Autechre - EPS 1991 - 2002 - (5 CDs) - 2011\CD5\06. Blifil.wav
Пиковый уровень 93.9 % Скорость извлечения 2.9 X Качество трека 100.0 % CRC теста B2D86B63 CRC копии B2D86B63 Точное извлечение (достоверность 48) [0955583C] (AR v2) Копирование... OK
Трек 7
Имя файла D:\Музыка\Autechre - EPS 1991 - 2002 - (5 CDs) - 2011\CD5\07. Gaekwad.wav
Пиковый уровень 99.0 % Скорость извлечения 3.1 X Качество трека 100.0 % CRC теста E8447577 CRC копии E8447577 Точное извлечение (достоверность 48) [28C2253C] (AR v2) Копирование... OK
Трек 8
Имя файла D:\Музыка\Autechre - EPS 1991 - 2002 - (5 CDs) - 2011\CD5\08. 19 Headaches.wav
Пиковый уровень 100.0 % Скорость извлечения 3.3 X Качество трека 100.0 % CRC теста 48BEF933 CRC копии 48BEF933 Точное извлечение (достоверность 48) [8DDFD1BB] (AR v2) Копирование... OK
Трек 9
Имя файла D:\Музыка\Autechre - EPS 1991 - 2002 - (5 CDs) - 2011\CD5\09. Gantz Graf.wav
Пиковый уровень 98.8 % Скорость извлечения 3.1 X Качество трека 100.0 % CRC теста 07EEA906 CRC копии 07EEA906 Точное извлечение (достоверность 48) [03BDCF12] (AR v2) Копирование... OK
Трек 10
Имя файла D:\Музыка\Autechre - EPS 1991 - 2002 - (5 CDs) - 2011\CD5\10. Dial..wav
Пиковый уровень 99.5 % Скорость извлечения 2.9 X Качество трека 99.9 % CRC теста 31E7E366 CRC копии 31E7E366 Точное извлечение (достоверность 48) [A5D41143] (AR v2) Копирование... OK
Трек 11
Имя файла D:\Музыка\Autechre - EPS 1991 - 2002 - (5 CDs) - 2011\CD5\11. Cap.IV.wav
Пиковый уровень 98.8 % Скорость извлечения 4.0 X Качество трека 100.0 % CRC теста 86D4DD7A CRC копии 86D4DD7A Точное извлечение (достоверность 47) [7C5F1E23] (AR v2) Копирование... OK
Все треки извлечены точно
Ошибок не произошло
Конец отчёта
---- CUETools DB Plugin V2.1.6
[CTDB TOCID: VGrYpaPsfWhMyrv3R3VTjFOMbpA-] foundSubmit result: VGrYpaPsfWhMyrv3R3VTjFOMbpA- has been confirmedTrack | CTDB Status 1 | (78/79) Accurately ripped 2 | (79/79) Accurately ripped 3 | (79/79) Accurately ripped 4 | (79/79) Accurately ripped 5 | (78/79) Accurately ripped 6 | (79/79) Accurately ripped 7 | (79/79) Accurately ripped 8 | (77/79) Accurately ripped 9 | (79/79) Accurately ripped 10 | (79/79) Accurately ripped 11 | (77/79) Accurately ripped
==== Контрольная сумма отчёта 642BEFFFE3CA568455FC97CC23E6AD11027A7CE21B27BB101808587E3CAEA9EE ====

.cue

REM DATE 2011REM DISCID 9210B90BREM COMMENT "ExactAudioCopy v1.1"PERFORMER "Autechre"TITLE "EPs 1991–2002"FILE "01. Maphive6.1.wav" WAVE  TRACK 01 AUDIO    TITLE "Maphive6.1"    PERFORMER "Autechre"    ISRC GBBPW9900065    INDEX 01 00:00:00FILE "02. Zeiss Contarex.wav" WAVE  TRACK 02 AUDIO    TITLE "Zeiss Contarex"    PERFORMER "Autechre"    ISRC GBBPW9900066    INDEX 01 00:00:00FILE "03. Netlon Sentinel.wav" WAVE  TRACK 03 AUDIO    TITLE "Netlon Sentinel"    PERFORMER "Autechre"    ISRC GBBPW9900067    INDEX 01 00:00:00FILE "04. Pir.wav" WAVE  TRACK 04 AUDIO    TITLE "Pir"    PERFORMER "Autechre"    ISRC GBBPW9900068    INDEX 01 00:00:00FILE "05. Gelk.wav" WAVE  TRACK 05 AUDIO    TITLE "Gelk"    PERFORMER "Autechre"    ISRC GBBPW9900068    INDEX 01 00:00:00FILE "06. Blifil.wav" WAVE  TRACK 06 AUDIO    TITLE "Blifil"    PERFORMER "Autechre"    ISRC GBBPW0000134    INDEX 01 00:00:00FILE "07. Gaekwad.wav" WAVE  TRACK 07 AUDIO    TITLE "Gaekwad"    PERFORMER "Autechre"    ISRC GBBPW0000136    INDEX 01 00:00:00FILE "08. 19 Headaches.wav" WAVE  TRACK 08 AUDIO    TITLE "19 Headaches"    PERFORMER "Autechre"    ISRC GBBPW0000137    INDEX 01 00:00:00FILE "09. Gantz Graf.wav" WAVE  TRACK 09 AUDIO    TITLE "Gantz Graf"    PERFORMER "Autechre"    ISRC GBBPW0100045    INDEX 01 00:00:00FILE "10. Dial..wav" WAVE  TRACK 10 AUDIO    TITLE "Dial."    PERFORMER "Autechre"    ISRC GBBPW0100046    INDEX 01 00:00:00FILE "11. Cap.IV.wav" WAVE  TRACK 11 AUDIO    TITLE "Cap.IV"    PERFORMER "Autechre"    ISRC GBBPW0100047    INDEX 01 00:00:00
Вы не можете начинать темы
Вы не можете отвечать на сообщения
Вы не можете редактировать свои сообщения
Вы не можете удалять свои сообщения
Вы не можете голосовать в опросах
Вы не можете прикреплять файлы к сообщениям
Вы можете скачивать файлы
!ВНИМАНИЕ!

Сайт не предоставляет электронные версии произведений, а занимается лишь коллекционированием и каталогизацией ссылок, присылаемых и публикуемых на форуме нашими читателями. Если вы являетесь правообладателем какого-либо представленного материала и не желаете, чтобы ссылка на него находилась в нашем каталоге, свяжитесь с нами, и мы незамедлительно удалим ее. Файлы для обмена на трекере предоставлены пользователями сайта, и администрация не несет ответственности за их содержание. Просьба не заливать файлы, защищенные авторскими правами, а также файлы нелегального содержания!

Искали программы, игры, дополнения, музыка mp3, аниме, аудио книги, журналы? Добро пожаловать на свободный торрент трекер Torrents, у нас можно скачать бесплатно, без смс и регистрации и прочих ограничений лучшие, отборные сборки программ, игр. Скачать торрентом не составит труда даже не опытному пользователю. Раздачи ежедневно обновляются, только лучшие и качественные раздачи, подробные описания и скриншоты. Огромная коллекция программ для работы со звуком, графикой, дизайном, а так же множество плагинов и инструментов к ним с подробной инструкцией и рекомендациями. Прошивки для навигаторов, карты. Разнообразные игры, для Windows, Linux. В коллекцие есть и старые игры любых жанров, Rpg, Action, Shooter, strategy Множество дополнений, модификаций, сценариев для популярных игр в жанре экш, рпг, гонки, стратегии, логические игры. Множество аддонов и сценариев для Microsoft Flight Simulator Большая коллекция книг, учебников. Если нет возможности купить печатное издание - смело скачивайте цифровую версию книги или, быть может, журнала. Не любите читать - можно загрузить бесплатно аудикнигу. Для веб дизайнеров и программистов так же найдется множество специализированного софта, таких как: редакторы с подсветкой, среды программирования, компоненты, системы управления базами данных, разнообразные скрипты и шаблоны. Не так давно у нас появился материал для автолюбителей и владельцев мото - оригинальные и неоригинальные каталоги запчастей, книги и журналы по ремонту и обслуживанию, видеоуроки, статьи по чип тюнингу, прошивкам. Процедура получения контента элементарная, достаточно просто скачать торрент файл и добавить его в загрузку в вашем торрент клиенте. Если у вас нет специального торрент клиента, вы можете его скачать у нас.