Byw Celwydd - Season 3 | DVD Mavis! (2015) | Game of Thrones - Season 6 - 1080p HDTV - x265 HEVC - 6CH - ShAaNiG

(Breakbeat) [CD] Liquid - Sweet Harmony - 1992, FLAC (image+.cue), lossless 

Цитировать
Liquid / Sweet Harmony
Жанр: Breakbeat
Носитель: CD
Страна-производитель диска (релиза): Великобритания
Год издания: 1992
Издатель (лейбл): XL Recordings
Номер по каталогу: XLS-28CD
Страна исполнителя (группы): Великобритания
Аудиокодек: FLAC (*.flac)
Тип рипа: image+.cue
Битрейт аудио: lossless
Продолжительность: 0:17:49
Источник (релизер): Собственный рип
Наличие сканов в содержимом раздачи: нет
Треклист:
1. Sweet Harmony (Edit) 3:45
2. Phog 4:37
3. Sweet Harmony (Remix) 4:51
4. Sweet Harmony (Original Mix) 4:22

Лог создания рипа

Exact Audio Copy V1.0 beta 3 from 29. August 2011
Отчёт EAC об извлечении, выполненном 20. октября 2018, 16:38
Liquid / Sweet Harmony
Дисковод: Optiarc DVD RW AD-7200S Adapter: 3 ID: 0
Режим чтения : ДостоверностьИспользование точного потока : ДаОтключение кэша аудио : ДаИспользование указателей C2 : Нет
Коррекция смещения при чтении : 48Способность читать области Lead-in и Lead-out : НетЗаполнение пропущенных сэмплов тишиной : ДаУдаление блоков с тишиной в начале и конце : НетПри вычислениях CRC использовались нулевые сэмплы : ДаИнтерфейс : Установленный внешний ASPI-интерфейс
Выходной формат : Пользовательский кодировщикВыбранный битрейт : 1024 kBit/sКачество : ВысокийДобавление ID3-тега : НетУтилита сжатия : C:\Program Files (x86)\Exact Audio Copy\FLAC\FLAC.EXEДополнительные параметры : -V -8 -T "Date=%year%" -T "Genre=%genre%" %source%
TOC извлечённого CD
Трек | Старт | Длительность | Начальный сектор | Конечный сектор --------------------------------------------------------------------- 1 | 0:00.00 | 3:48.20 | 0 | 17119 2 | 3:48.20 | 4:40.60 | 17120 | 38179 3 | 8:29.05 | 4:58.05 | 38180 | 60534 4 | 13:27.10 | 4:21.70 | 60535 | 80179
Характеристики диапазона извлечения и сообщения об ошибках
Выбранный диапазон
Имя файла C:\Users\ASUS\Music\Audio\Liquid - Sweet Harmony.wav
Пиковый уровень 100.0 % Скорость извлечения 3.2 X Качество диапазона 99.9 % CRC теста 7D735A35 CRC копии 7D735A35 Копирование... OK
Ошибок не произошло
AccurateRip: сводка
Трек 1 отсутствует в базе данныхТрек 2 отсутствует в базе данныхТрек 3 отсутствует в базе данныхТрек 4 отсутствует в базе данных
Ни одного трека нет в базе AccurateRip
Конец отчёта
==== Контрольная сумма отчёта 53D77A9AF060BA580517436EB0CBACB18EBE3DF35563A615D8148921369E012B ====

Содержание индексной карты (.CUE)

REM GENRE BreakbeatREM DATE 1992REM DISCID 1F042D04REM COMMENT "ExactAudioCopy v1.0b3"PERFORMER "Liquid"TITLE "Sweet Harmony"FILE "Liquid - Sweet Harmony.flac" WAVE  TRACK 01 AUDIO    TITLE "Sweet Harmony (Edit)"    PERFORMER "Liquid"    INDEX 01 00:00:00  TRACK 02 AUDIO    TITLE "Phog"    PERFORMER "Liquid"    INDEX 01 03:48:20  TRACK 03 AUDIO    TITLE "Sweet Harmony (Remix)"    PERFORMER "Liquid"    INDEX 01 08:29:05  TRACK 04 AUDIO    TITLE "Sweet Harmony (Original Mix)"    PERFORMER "Liquid"    INDEX 01 13:27:10
Вы не можете начинать темы
Вы не можете отвечать на сообщения
Вы не можете редактировать свои сообщения
Вы не можете удалять свои сообщения
Вы не можете голосовать в опросах
Вы не можете прикреплять файлы к сообщениям
Вы можете скачивать файлы
!ВНИМАНИЕ!

Сайт не предоставляет электронные версии произведений, а занимается лишь коллекционированием и каталогизацией ссылок, присылаемых и публикуемых на форуме нашими читателями. Если вы являетесь правообладателем какого-либо представленного материала и не желаете, чтобы ссылка на него находилась в нашем каталоге, свяжитесь с нами, и мы незамедлительно удалим ее. Файлы для обмена на трекере предоставлены пользователями сайта, и администрация не несет ответственности за их содержание. Просьба не заливать файлы, защищенные авторскими правами, а также файлы нелегального содержания!

Искали программы, игры, дополнения, музыка mp3, аниме, аудио книги, журналы? Добро пожаловать на свободный торрент трекер Torrents, у нас можно скачать бесплатно, без смс и регистрации и прочих ограничений лучшие, отборные сборки программ, игр. Скачать торрентом не составит труда даже не опытному пользователю. Раздачи ежедневно обновляются, только лучшие и качественные раздачи, подробные описания и скриншоты. Огромная коллекция программ для работы со звуком, графикой, дизайном, а так же множество плагинов и инструментов к ним с подробной инструкцией и рекомендациями. Прошивки для навигаторов, карты. Разнообразные игры, для Windows, Linux. В коллекцие есть и старые игры любых жанров, Rpg, Action, Shooter, strategy Множество дополнений, модификаций, сценариев для популярных игр в жанре экш, рпг, гонки, стратегии, логические игры. Множество аддонов и сценариев для Microsoft Flight Simulator Большая коллекция книг, учебников. Если нет возможности купить печатное издание - смело скачивайте цифровую версию книги или, быть может, журнала. Не любите читать - можно загрузить бесплатно аудикнигу. Для веб дизайнеров и программистов так же найдется множество специализированного софта, таких как: редакторы с подсветкой, среды программирования, компоненты, системы управления базами данных, разнообразные скрипты и шаблоны. Не так давно у нас появился материал для автолюбителей и владельцев мото - оригинальные и неоригинальные каталоги запчастей, книги и журналы по ремонту и обслуживанию, видеоуроки, статьи по чип тюнингу, прошивкам. Процедура получения контента элементарная, достаточно просто скачать торрент файл и добавить его в загрузку в вашем торрент клиенте. Если у вас нет специального торрент клиента, вы можете его скачать у нас.