Crystal Dream Sparkling Butterfly Bottle Theme | saison 2, épisode 3 - Chute libre | Television

Трембита (Олег Николаевский) [1968, музыкальная комедия, HDTVRip-AVC] 

Цитировать
Трембита- Жанр: музыкальная комедия
Год выпуска: 1968
Продолжительность: 01:27:13-Режиссёр: Олег Николаевский-В ролях:
Евгений Весник, Ольга Аросева, Борис Савченко, Людмила Купина (озвучание - Ия Саввина), Алексей Чернов, Николай Трофимов, Юлия Вуккерт, Александр Галевский, Иван Переверзев, Сергей Блинников, Савелий Крамаров, Илья Клявер, Иван Матвеев, Николай Пишванов, Галина Короткевич, Леонид Шехтман, Валентина Пугачёва, Лев Степанов
Описание:
После окончания Великой Отечественной войны в Закарпатье появляется Богдан Сусик, бывший дворецкий графа Шенброка. Только ему известно о тайнике, где бежавший с отступавшими немцами помещик спрятал свои миллионы.-Исходник | Сэмпл | Кинопоиск-Качество видео: HDTVRip-AVC, спасибо Parabellumm за запись трансляции.
Формат видео: MKV
Видео: x264 (High@L4.1); 1152x486, Display aspect ratio 2.370:1, 25.000 fps, 4500 Kbps
Аудио: AC-3; 16 bits 48 Khz; 2.0 ch 192 Kbps; CBR

MediaInfo

avs [info]: 1152x486p 1:1 @ 25/1 fps (cfr)
x264 [info]: using SAR=1/1
x264 [info]: profile High, level 4.1
x264 [info]: frame I:899 Avg QP:18.60 size: 91645
x264 [info]: frame P:32763 Avg QP:20.74 size: 38146
x264 [info]: frame B:97179 Avg QP:22.60 size: 16589
x264 [info]: consecutive B-frames: 1.7% 3.5% 5.8% 62.1% 12.1% 12.9% 1.2% 0.7% 0.0%
x264 [info]: ref P L0: 43.8% 15.6% 13.6% 6.5% 3.9% 3.5% 2.7% 1.8% 1.5% 1.5% 1.3% 1.3% 1.2% 1.2% 0.5% 0.0%
x264 [info]: ref B L0: 86.5% 6.8% 2.0% 1.1% 0.8% 0.7% 0.6% 0.4% 0.3% 0.3% 0.3% 0.2% 0.1%
x264 [info]: ref B L1: 97.5% 2.5%
x264 [info]: kb/s:4500.27--General
Unique ID : 248771679823287541544623514599431825927 (0xBB27AEC89EB8AA04A53DF547C7076A07)
Complete name : Трембита.1968.mkv
Format : Matroska
Format version : Version 2
File size : 2.86 GiB
Duration : 1 h 27 min
Overall bit rate : 4 694 kb/s
Encoded date : UTC 2017-07-16 13:13:42
Writing application : mkvmerge v7.8.0 ('River Man') 32bit built on Mar 27 2015 16:18:02
Writing library : libebml v1.3.1 + libmatroska v1.4.2
Video
ID : 1
Format : AVC
Format/Info : Advanced Video Codec
Format profile : High@L4.1
Format settings, CABAC : Yes
Format settings, ReFrames : 14 frames
Codec ID : V_MPEG4/ISO/AVC
Duration : 1 h 27 min
Bit rate : 4 500 kb/s
Width : 1 152 pixels
Height : 486 pixels
Display aspect ratio : 2.40:1
Frame rate mode : Constant
Frame rate : 25.000 FPS
Color space : YUV
Chroma subsampling : 4:2:0
Bit depth : 8 bits
Scan type : Progressive
Bits/(Pixel*Frame) : 0.322
Stream size : 2.69 GiB (94%)
Title : Трембита.1968
Writing library : x264 core 150 r2833kMod df79067
Encoding settings : cabac=1 / ref=14 / deblock=1:-2:-2 / analyse=0x3:0x113 / me=umh / subme=11 / psy=1 / fade_compensate=0.00 / psy_rd=1.10:0.20 / mixed_ref=1 / me_range=32 / chroma_me=1 / trellis=2 / 8x8dct=1 / cqm=0 / deadzone=21,11 / fast_pskip=0 / chroma_qp_offset=-3 / threads=12 / lookahead_threads=2 / sliced_threads=0 / nr=0 / decimate=0 / interlaced=0 / bluray_compat=0 / constrained_intra=0 / bframes=8 / b_pyramid=2 / b_adapt=2 / b_bias=0 / direct=3 / weightb=1 / open_gop=0 / weightp=2 / keyint=250 / keyint_min=25 / scenecut=40 / intra_refresh=0 / rc_lookahead=60 / rc=2pass / mbtree=0 / bitrate=4500 / ratetol=1.0 / qcomp=0.65 / qpmin=0 / qpmax=69 / qpstep=4 / cplxblur=20.0 / qblur=0.5 / vbv_maxrate=62500 / vbv_bufsize=78125 / nal_hrd=none / filler=0 / ip_ratio=1.35 / pb_ratio=1.30 / aq=2:0.90
Language : Russian
Default : Yes
Forced : No
Color range : Limited
Color primaries : BT.709
Transfer characteristics : BT.709
Matrix coefficients : BT.709
Audio
ID : 2
Format : AC-3
Format/Info : Audio Coding 3
Mode extension : CM (complete main)
Format settings, Endianness : Big
Codec ID : A_AC3
Duration : 1 h 27 min
Bit rate mode : Constant
Bit rate : 192 kb/s
Channel(s) : 2 channels
Channel positions : Front: L R
Sampling rate : 48.0 kHz
Frame rate : 31.250 FPS (1536 spf)
Compression mode : Lossy
Stream size : 120 MiB (4%)
Title : AC-3; 16 bits 48 Khz; 2.0 ch 192 Kbps; CBR
Language : Russian
Default : Yes
Forced : No

Доп инфо

Осталось два анонса по ~ 8 секунд на 32-й и 54-й минутах фильма.
Вы не можете начинать темы
Вы не можете отвечать на сообщения
Вы не можете редактировать свои сообщения
Вы не можете удалять свои сообщения
Вы не можете голосовать в опросах
Вы не можете прикреплять файлы к сообщениям
Вы можете скачивать файлы
!ВНИМАНИЕ!

Сайт не предоставляет электронные версии произведений, а занимается лишь коллекционированием и каталогизацией ссылок, присылаемых и публикуемых на форуме нашими читателями. Если вы являетесь правообладателем какого-либо представленного материала и не желаете, чтобы ссылка на него находилась в нашем каталоге, свяжитесь с нами, и мы незамедлительно удалим ее. Файлы для обмена на трекере предоставлены пользователями сайта, и администрация не несет ответственности за их содержание. Просьба не заливать файлы, защищенные авторскими правами, а также файлы нелегального содержания!

Искали программы, игры, дополнения, музыка mp3, аниме, аудио книги, журналы? Добро пожаловать на свободный торрент трекер Torrents, у нас можно скачать бесплатно, без смс и регистрации и прочих ограничений лучшие, отборные сборки программ, игр. Скачать торрентом не составит труда даже не опытному пользователю. Раздачи ежедневно обновляются, только лучшие и качественные раздачи, подробные описания и скриншоты. Огромная коллекция программ для работы со звуком, графикой, дизайном, а так же множество плагинов и инструментов к ним с подробной инструкцией и рекомендациями. Прошивки для навигаторов, карты. Разнообразные игры, для Windows, Linux. В коллекцие есть и старые игры любых жанров, Rpg, Action, Shooter, strategy Множество дополнений, модификаций, сценариев для популярных игр в жанре экш, рпг, гонки, стратегии, логические игры. Множество аддонов и сценариев для Microsoft Flight Simulator Большая коллекция книг, учебников. Если нет возможности купить печатное издание - смело скачивайте цифровую версию книги или, быть может, журнала. Не любите читать - можно загрузить бесплатно аудикнигу. Для веб дизайнеров и программистов так же найдется множество специализированного софта, таких как: редакторы с подсветкой, среды программирования, компоненты, системы управления базами данных, разнообразные скрипты и шаблоны. Не так давно у нас появился материал для автолюбителей и владельцев мото - оригинальные и неоригинальные каталоги запчастей, книги и журналы по ремонту и обслуживанию, видеоуроки, статьи по чип тюнингу, прошивкам. Процедура получения контента элементарная, достаточно просто скачать торрент файл и добавить его в загрузку в вашем торрент клиенте. Если у вас нет специального торрент клиента, вы можете его скачать у нас.