Sullivan and Son | Mnet Asian Music Awards 2015 | Doctor Who

Просто ужас (Александр Полынников) [1982, комедия, SATRip-AVC] 

Цитировать
Просто ужас! (2 серии)- Жанр: комедия
Год выпуска: 1982
Продолжительность: 02:07:47 (01:03:36 + 01:04:11)-Режиссёр: Александр Полынников-В ролях:
Дмитрий Замулин, Семён Морозов, Фёкла Толстая, Галина Веневитинова, Алла Будницкая, Леонид Куравлёв, Лидия Ежевская, Александр Ширвиндт, Наталья Крачковская, Елизавета Никищихина, Евгения Ханаева, Евгений Моргунов, Георгий Георгиу, Сергей Голубков.
Описание:
О забавных приключениях шестиклассника Антона и его папы. С помощью чудесной машины «Исполнитель желания» Антон становится ветеринаром, а его отец, врач-ветеринар, - школьником.-Исходник | Сэмпл | Кинопоиск-Качество видео: SATRip-AVC, спасибо Cheef mate за исходник.
Формат видео: MKV
Видео: x264: (High@L4.1); 710@757x564, Display aspect ratio 1.342:1, 25.000 fps, 2247 Kbps
Аудио: AC-3; 16 bits 48 Khz; 2.0 ch 192 Kbps; CBR

MediaInfo

avs [info]: 710x564p 16:15 @ 25/1 fps (cfr)
x264 [info]: using SAR=16/15
x264 [info]: profile High, level 4.1
x264 [info]: frame I:1151 Avg QP:19.16 size: 55286
x264 [info]: frame P:42254 Avg QP:21.42 size: 22163
x264 [info]: frame B:148270 Avg QP:23.35 size: 7193
x264 [info]: consecutive B-frames: 2.2% 2.8% 7.3% 24.5% 15.9% 39.0% 5.3% 2.0% 0.8% 0.2%
x264 [info]: ref P L0: 40.5% 14.4% 14.0% 6.8% 5.1% 3.8% 3.2% 1.9% 1.8% 1.5% 1.5% 1.2% 1.2% 1.1% 1.1% 0.8%
x264 [info]: ref B L0: 77.6% 8.4% 3.7% 2.3% 1.7% 1.4% 1.1% 0.7% 0.6% 0.6% 0.5% 0.5% 0.4% 0.3% 0.1%
x264 [info]: ref B L1: 96.9% 3.1%
x264 [info]: kb/s:2246.68--General
Unique ID : 183520558582005605507277467618392915337 (0x8A10C61F83C1325E833F0632E727BD89)
Complete name : Просто ужас.1982.mkv
Format : Matroska
Format version : Version 2
File size : 2.18 GiB
Duration : 2 h 7 min
Overall bit rate : 2 439 kb/s
Encoded date : UTC 2017-07-18 17:20:15
Writing application : mkvmerge v7.8.0 ('River Man') 32bit built on Mar 27 2015 16:18:02
Writing library : libebml v1.3.1 + libmatroska v1.4.2
Video
ID : 1
Format : AVC
Format/Info : Advanced Video Codec
Format profile : High@L4.1
Format settings, CABAC : Yes
Format settings, ReFrames : 16 frames
Codec ID : V_MPEG4/ISO/AVC
Duration : 2 h 7 min
Bit rate : 2 247 kb/s
Width : 710 pixels
Height : 564 pixels
Display aspect ratio : 4:3
Original display aspect rat : 4:3
Frame rate mode : Constant
Frame rate : 25.000 FPS
Color space : YUV
Chroma subsampling : 4:2:0
Bit depth : 8 bits
Scan type : Progressive
Bits/(Pixel*Frame) : 0.224
Stream size : 1.96 GiB (90%)
Title : Просто ужас.1982
Writing library : x264 core 150 r2833kMod df79067
Encoding settings : cabac=1 / ref=16 / deblock=1:-2:-1 / analyse=0x3:0x133 / me=umh / subme=10 / psy=1 / fade_compensate=0.00 / psy_rd=1.00:0.15 / mixed_ref=1 / me_range=32 / chroma_me=1 / trellis=2 / 8x8dct=1 / cqm=0 / deadzone=21,11 / fast_pskip=0 / chroma_qp_offset=-3 / threads=12 / lookahead_threads=2 / sliced_threads=0 / nr=0 / decimate=0 / interlaced=0 / bluray_compat=0 / constrained_intra=0 / bframes=9 / b_pyramid=2 / b_adapt=2 / b_bias=0 / direct=3 / weightb=1 / open_gop=0 / weightp=2 / keyint=250 / keyint_min=25 / scenecut=40 / intra_refresh=0 / rc_lookahead=60 / rc=2pass / mbtree=0 / bitrate=2247 / ratetol=1.0 / qcomp=0.60 / qpmin=0 / qpmax=69 / qpstep=4 / cplxblur=20.0 / qblur=0.5 / vbv_maxrate=62500 / vbv_bufsize=78125 / nal_hrd=none / filler=0 / ip_ratio=1.35 / pb_ratio=1.30 / aq=1:0.90
Language : Russian
Default : Yes
Forced : No
Color range : Limited
Color primaries : BT.601 PAL
Transfer characteristics : BT.470 System B, BT.470 System G
Matrix coefficients : BT.601
Audio
ID : 2
Format : AC-3
Format/Info : Audio Coding 3
Mode extension : CM (complete main)
Format settings, Endianness : Big
Codec ID : A_AC3
Duration : 2 h 7 min
Bit rate mode : Constant
Bit rate : 192 kb/s
Channel(s) : 2 channels
Channel positions : Front: L R
Sampling rate : 48.0 kHz
Frame rate : 31.250 FPS (1536 spf)
Compression mode : Lossy
Stream size : 175 MiB (8%)
Title : AC-3; 16 bits 48 Khz; 2.0 ch 192 Kbps; CBR
Language : Russian
Default : Yes
Forced : No
Menu
00:00:00.000 : ru:1 серия
01:03:36.920 : ru:2 серия
Вы не можете начинать темы
Вы не можете отвечать на сообщения
Вы не можете редактировать свои сообщения
Вы не можете удалять свои сообщения
Вы не можете голосовать в опросах
Вы не можете прикреплять файлы к сообщениям
Вы можете скачивать файлы
!ВНИМАНИЕ!

Сайт не предоставляет электронные версии произведений, а занимается лишь коллекционированием и каталогизацией ссылок, присылаемых и публикуемых на форуме нашими читателями. Если вы являетесь правообладателем какого-либо представленного материала и не желаете, чтобы ссылка на него находилась в нашем каталоге, свяжитесь с нами, и мы незамедлительно удалим ее. Файлы для обмена на трекере предоставлены пользователями сайта, и администрация не несет ответственности за их содержание. Просьба не заливать файлы, защищенные авторскими правами, а также файлы нелегального содержания!

Искали программы, игры, дополнения, музыка mp3, аниме, аудио книги, журналы? Добро пожаловать на свободный торрент трекер Torrents, у нас можно скачать бесплатно, без смс и регистрации и прочих ограничений лучшие, отборные сборки программ, игр. Скачать торрентом не составит труда даже не опытному пользователю. Раздачи ежедневно обновляются, только лучшие и качественные раздачи, подробные описания и скриншоты. Огромная коллекция программ для работы со звуком, графикой, дизайном, а так же множество плагинов и инструментов к ним с подробной инструкцией и рекомендациями. Прошивки для навигаторов, карты. Разнообразные игры, для Windows, Linux. В коллекцие есть и старые игры любых жанров, Rpg, Action, Shooter, strategy Множество дополнений, модификаций, сценариев для популярных игр в жанре экш, рпг, гонки, стратегии, логические игры. Множество аддонов и сценариев для Microsoft Flight Simulator Большая коллекция книг, учебников. Если нет возможности купить печатное издание - смело скачивайте цифровую версию книги или, быть может, журнала. Не любите читать - можно загрузить бесплатно аудикнигу. Для веб дизайнеров и программистов так же найдется множество специализированного софта, таких как: редакторы с подсветкой, среды программирования, компоненты, системы управления базами данных, разнообразные скрипты и шаблоны. Не так давно у нас появился материал для автолюбителей и владельцев мото - оригинальные и неоригинальные каталоги запчастей, книги и журналы по ремонту и обслуживанию, видеоуроки, статьи по чип тюнингу, прошивкам. Процедура получения контента элементарная, достаточно просто скачать торрент файл и добавить его в загрузку в вашем торрент клиенте. Если у вас нет специального торрент клиента, вы можете его скачать у нас.