Octane N°41 – Novembre-Décembre 2018 | VA - Uplifting Only Top 15: June (2018) MP3 11 minutes | 10.05.1020:22 Uhr Iron Man 2 Action0 / 05.216 Hits VID P2P DDL 0 Kommentare

Мой первый друг (Яков Базелян) [1979, Детский, Семейный, DVDRip] 

Цитировать
Мой первый друг-Страна: СССР
Студия: Киностудия им. М.Горького
Жанр: Детский, Семейный
Год выпуска: 1979
Продолжительность: 01:00:08
Режиссёр: Яков Базелян
Сценарист: Ганна Слуцки, Александр Хмелик Оператор: Александр Филатов
Композитор: Евгений Крылатов Художник: Виктор Власков
В ролях: Егор Грамматиков, Валерий Владинов, Анна Голубева, Ольга Волкова, Сергей Нестеров, Татьяна Божок, Антонина Дмитриева, Георгий Милляр, Надежда Самсонова, Владимир Соколов, Надя Гольцева, Алла Ивлева, Миша Колбасов, Г. Сизов, Е. Смирнов, В. Щербакова
Описание: Неразлучные друзья-шестиклассники Саша, Аня и Юра ничего не скрывают друг от друга. Но из-за неугомонного Юры Пузырева сокровенная тайна толстушки Ани, которая влюбилась в учителя литературы, становится всем известна. Так в кругу друзей назрела первая серьезная размолвка...
-Качество видео: DVDRip с DVD: Мой первый друг. Стеклянный лабиринт (Яков Базелян. Марк Осипьян) [1979, 1989 г., DVD9]
Формат видео: AVI
Видео: 688x304 (2.26:1), 25 fps, XviD MPEG-4 ~2394 kbps avg, 0.46 bit/pixel
Аудио: 48 kHz, AC3 Dolby Digital, 2/0 (L,R) ch, ~192.00 kbps avg
Сэмпл: http://multi-up.com/1165627

MediaInfo

Общее
Полное имя                               : Мой первый друг (Яков Базелян) [1979, Детский, Семейный, DVDRip].avi
Формат                                   : AVI
Формат/Информация                        : Audio Video Interleave
Размер файла                             : 1,09 Гбайт
Продолжительность                        : 1 ч. 0 м.
Общий поток                              : 2597 Кбит/сек
Название фильма                          : Мой первый друг
Режиссёр                                 : Яков Базелян
Жанр                                     : Child's
Программа кодирования                    : VirtualDubMod 1.5.10.2 (build 2540/release)
Формат оригинала/Имя                     : Movie
Правообладатель                          : СССР
Примечание                               : DVDRip by MonteKryu
Видео
Идентификатор                            : 0
Формат                                   : MPEG-4 Visual
Профиль формата                          : Advanced Simple@L5
Параметр BVOP формата                    : 2
Параметр QPel формата                    : Нет
Параметр GMC формата                     : Без точки перехода
Параметр матрицы формата                 : Default (MPEG)
Идентификатор кодека                     : XVID
Идентификатор кодека/Подсказка           : XviD
Продолжительность                        : 1 ч. 0 м.
Битрейт                                  : 2395 Кбит/сек
Ширина                                   : 688 пикселей
Высота                                   : 304 пикселя
Соотношение сторон                       : 2,25:1
Частота кадров                           : 25,000 кадров/сек
Цветовое пространство                    : YUV
Субдискретизация насыщенности            : 4:2:0
Битовая глубина                          : 8 бит
Тип развёртки                            : Прогрессивная
Метод сжатия                             : С потерями
Бит/(Пиксели*Кадры)                      : 0.458
Размер потока                            : 1,01 Гбайт (92%)
Библиотека кодирования                   : XviD 64
Аудио
Идентификатор                            : 1
Формат                                   : AC-3
Формат/Информация                        : Audio Coding 3
Расширение режима                        : CM (complete main)
Параметр Endianness формата              : Big
Идентификатор кодека                     : 2000
Продолжительность                        : 1 ч. 0 м.
Вид битрейта                             : Постоянный
Битрейт                                  : 192 Кбит/сек
Каналы                                   : 2 канала
Расположение каналов                     : Front: L R
Частота                                  : 48,0 КГц
Битовая глубина                          : 16 бит
Метод сжатия                             : С потерями
Размер потока                            : 82,6 Мбайт (7%)
Выравнивание                             : Разделение по промежуткам
Продолжительность промежутка             : 40  мс. (1,00 видеокадр)
Время предзагрузки промежутка            : 500  мс.

Скриншоты

Вы не можете начинать темы
Вы не можете отвечать на сообщения
Вы не можете редактировать свои сообщения
Вы не можете удалять свои сообщения
Вы не можете голосовать в опросах
Вы не можете прикреплять файлы к сообщениям
Вы можете скачивать файлы
!ВНИМАНИЕ!

Сайт не предоставляет электронные версии произведений, а занимается лишь коллекционированием и каталогизацией ссылок, присылаемых и публикуемых на форуме нашими читателями. Если вы являетесь правообладателем какого-либо представленного материала и не желаете, чтобы ссылка на него находилась в нашем каталоге, свяжитесь с нами, и мы незамедлительно удалим ее. Файлы для обмена на трекере предоставлены пользователями сайта, и администрация не несет ответственности за их содержание. Просьба не заливать файлы, защищенные авторскими правами, а также файлы нелегального содержания!

Искали программы, игры, дополнения, музыка mp3, аниме, аудио книги, журналы? Добро пожаловать на свободный торрент трекер Torrents, у нас можно скачать бесплатно, без смс и регистрации и прочих ограничений лучшие, отборные сборки программ, игр. Скачать торрентом не составит труда даже не опытному пользователю. Раздачи ежедневно обновляются, только лучшие и качественные раздачи, подробные описания и скриншоты. Огромная коллекция программ для работы со звуком, графикой, дизайном, а так же множество плагинов и инструментов к ним с подробной инструкцией и рекомендациями. Прошивки для навигаторов, карты. Разнообразные игры, для Windows, Linux. В коллекцие есть и старые игры любых жанров, Rpg, Action, Shooter, strategy Множество дополнений, модификаций, сценариев для популярных игр в жанре экш, рпг, гонки, стратегии, логические игры. Множество аддонов и сценариев для Microsoft Flight Simulator Большая коллекция книг, учебников. Если нет возможности купить печатное издание - смело скачивайте цифровую версию книги или, быть может, журнала. Не любите читать - можно загрузить бесплатно аудикнигу. Для веб дизайнеров и программистов так же найдется множество специализированного софта, таких как: редакторы с подсветкой, среды программирования, компоненты, системы управления базами данных, разнообразные скрипты и шаблоны. Не так давно у нас появился материал для автолюбителей и владельцев мото - оригинальные и неоригинальные каталоги запчастей, книги и журналы по ремонту и обслуживанию, видеоуроки, статьи по чип тюнингу, прошивкам. Процедура получения контента элементарная, достаточно просто скачать торрент файл и добавить его в загрузку в вашем торрент клиенте. Если у вас нет специального торрент клиента, вы можете его скачать у нас.