Jetter Mars English Subbed | in flight fantasies | Bridgette B, Gina Valentina, Karma Rx, Lela Star, Nicol...

Собачье счастье (Александр Згуриди, Нана Клдиашвили) [1991, детский, VHSRip] 

Цитировать
Собачье счастье Год выпуска: 1991.
Жанр: детский.
Продолжительность: 01:05:37.
Режиссеры: Александр Згуриди, Нана Клдиашвили.
В ролях:
Дима Мосолов, Александр Овчинников, Николай Ермаков, Надежда Бутырцева, Олег Вавилов, Светлана Коркошко, Михаил Зимин, Геннадий Кочкожаров, Юрий Саранцев, Мария Скворцова.
Описание:
Пудель по кличке Малыш увязался за своим маленьким хозяином в школу, но там был выдворен на школьный двор и потерялся. Андрей и его родители искали Малыша по всему городу, но тот как в воду канул.
Доп. информация:
Страна: СССР .
Киностудия: Центрнаучфильм, "Орбита".
Авторы сценария: Нана Клдиашвили, Александр Згуриди.
Оператор: Александр Павлов.
Композитор: Андрей Петров.
Художник: Лев Грудев.
Премьера: июнь 1992 года.

Релиз
Огромное спасибо Ellies731 за предоставленый материал для рипа!!!
Качество, конечно, не идеальное, но других вариантов пока не найдено.


Качество: VHSRip
Формат: AVI
Видео: 688x528 (1.30:1), 25 fps, XviD build 73 ~2175 kbps avg, 0.24 bit/pixel
Аудио: 48 kHz, AC3 Dolby Digital, 2/0 (L,R) ch, ~192 kbps

Отчет MI

General
Complete name : Soba4'e.s4ast'e.1991.XviD.VHSRip.PAL.fenixclub_1.09.avi
Format : AVI
Format/Info : Audio Video Interleave
File size : 1.09 GiB
Duration : 1h 5mn
Overall bit rate : 2 377 Kbps
Writing application : VirtualDubMod 1.5.10.3 | www.virtualdub-fr.org || (build 2550/release)
Writing library : VirtualDubMod build 2550/release
Video
ID : 0
Format : MPEG-4 Visual
Format profile : Advanced Simple@L5
Format settings, BVOP : 1
Format settings, QPel : No
Format settings, GMC : No warppoints
Format settings, Matrix : Custom
Codec ID : XVID
Codec ID/Hint : XviD
Duration : 1h 5mn
Bit rate : 2 175 Kbps
Width : 688 pixels
Height : 528 pixels
Display aspect ratio : 4:3
Frame rate : 25.000 fps
Color space : YUV
Chroma subsampling : 4:2:0
Bit depth : 8 bits
Scan type : Progressive
Compression mode : Lossy
Bits/(Pixel*Frame) : 0.240
Stream size : 1 021 MiB (92%)
Writing library : XviD 73
Audio
ID : 1
Format : AC-3
Format/Info : Audio Coding 3
Mode extension : CM (complete main)
Format settings, Endianness : Big
Codec ID : 2000
Duration : 1h 5mn
Bit rate mode : Constant
Bit rate : 192 Kbps
Channel(s) : 2 channels
Channel positions : Front: L R
Sampling rate : 48.0 KHz
Frame rate : 31.250 fps (1536 spf)
Compression mode : Lossy
Stream size : 90.1 MiB (8%)
Alignment : Split accross interleaves
Interleave, duration : 40 ms (1.00 video frame)
Interleave, preload duratio : 500 ms.

Скриншоты


Торрент перезалит 11.09.2017 23:19 в связи с заменой рипа.
Вы не можете начинать темы
Вы не можете отвечать на сообщения
Вы не можете редактировать свои сообщения
Вы не можете удалять свои сообщения
Вы не можете голосовать в опросах
Вы не можете прикреплять файлы к сообщениям
Вы можете скачивать файлы
!ВНИМАНИЕ!

Сайт не предоставляет электронные версии произведений, а занимается лишь коллекционированием и каталогизацией ссылок, присылаемых и публикуемых на форуме нашими читателями. Если вы являетесь правообладателем какого-либо представленного материала и не желаете, чтобы ссылка на него находилась в нашем каталоге, свяжитесь с нами, и мы незамедлительно удалим ее. Файлы для обмена на трекере предоставлены пользователями сайта, и администрация не несет ответственности за их содержание. Просьба не заливать файлы, защищенные авторскими правами, а также файлы нелегального содержания!

Искали программы, игры, дополнения, музыка mp3, аниме, аудио книги, журналы? Добро пожаловать на свободный торрент трекер Torrents, у нас можно скачать бесплатно, без смс и регистрации и прочих ограничений лучшие, отборные сборки программ, игр. Скачать торрентом не составит труда даже не опытному пользователю. Раздачи ежедневно обновляются, только лучшие и качественные раздачи, подробные описания и скриншоты. Огромная коллекция программ для работы со звуком, графикой, дизайном, а так же множество плагинов и инструментов к ним с подробной инструкцией и рекомендациями. Прошивки для навигаторов, карты. Разнообразные игры, для Windows, Linux. В коллекцие есть и старые игры любых жанров, Rpg, Action, Shooter, strategy Множество дополнений, модификаций, сценариев для популярных игр в жанре экш, рпг, гонки, стратегии, логические игры. Множество аддонов и сценариев для Microsoft Flight Simulator Большая коллекция книг, учебников. Если нет возможности купить печатное издание - смело скачивайте цифровую версию книги или, быть может, журнала. Не любите читать - можно загрузить бесплатно аудикнигу. Для веб дизайнеров и программистов так же найдется множество специализированного софта, таких как: редакторы с подсветкой, среды программирования, компоненты, системы управления базами данных, разнообразные скрипты и шаблоны. Не так давно у нас появился материал для автолюбителей и владельцев мото - оригинальные и неоригинальные каталоги запчастей, книги и журналы по ремонту и обслуживанию, видеоуроки, статьи по чип тюнингу, прошивкам. Процедура получения контента элементарная, достаточно просто скачать торрент файл и добавить его в загрузку в вашем торрент клиенте. Если у вас нет специального торрент клиента, вы можете его скачать у нас.