American.Housewife.S03E07.The.Code.720p.AMZN.WEBRip.DDP5.1.x264-NTb[TGx] | Electro Techno et House | Greenleaf

(Electro Dub) Highvisators - High Tone Meets Improvisators Dub - 100% Dub - 2004, FLAC (tracks+.cue), lossless 

Цитировать
Highvisators - High Tone Meets Improvisators Dub - 100% Dub
Жанр: Electro Dub
Год выпуска диска: 2004
Производитель диска: France
Аудио кодек: FLAC
Тип рипа: tracks+.cue
Битрейт аудио: lossless
Продолжительность: 00:39:48
Трэклист:
01 Pusher Dub
02 Early Dub
03 Early Dub
04 Drongo Dub
05 Dub Fever
06 U-Man Bass
07 U-Man Bass
08 Keep On Fire
09 Dirty Eighty

EAC report

Exact Audio Copy V0.99 prebeta 3 from 28. July 2007
EAC extraction logfile from 14. March 2008, 18:18
Hight Tone & Improvisators Dub / Highvisators
Used drive : PHILIPS DVDR1628P1 Adapter: 4 ID: 0
Read mode : SecureUtilize accurate stream : YesDefeat audio cache : YesMake use of C2 pointers : No
Read offset correction : 618Overread into Lead-In and Lead-Out : NoFill up missing offset samples with silence : YesDelete leading and trailing silent blocks : NoNull samples used in CRC calculations : YesUsed interface : Installed external ASPI interfaceGap handling : Appended to previous track
Used output format : User Defined EncoderSelected bitrate : 192 kBit/sQuality : HighAdd ID3 tag : NoCommand line compressor : D:\Documents and Settings\branou\Mes documents\flac\FLAC\flac.exeAdditional command line options : -8 -A tukey(0.25) -A gauss(0.1875) -b 4096 -V -T "artist=%a" -T "title=%t" -T "album=%g" -T "date=%y" -T "tracknumber=%n" -T "genre=%m" %s --sector-align
TOC of the extracted CD
Track | Start | Length | Start sector | End sector --------------------------------------------------------- 1 | 0:00.00 | 4:13.72 | 0 | 19046 2 | 4:13.72 | 3:51.58 | 19047 | 36429 3 | 8:05.55 | 4:09.64 | 36430 | 55168 4 | 12:15.44 | 3:55.04 | 55169 | 72797 5 | 16:10.48 | 5:02.71 | 72798 | 95518 6 | 21:13.44 | 4:30.19 | 95519 | 115787 7 | 25:43.63 | 5:04.32 | 115788 | 138619 8 | 30:48.20 | 4:41.27 | 138620 | 159721 9 | 35:29.47 | 4:18.37 | 159722 | 179108
Track 1
Filename D:\Documents and Settings\branou\Mes documents\High Tone & Improvisators Dub\01 Pusher dub.wav
Pre-gap length 0:00:02.00
Peak level 98.9 % Track quality 100.0 % Test CRC 78AB6D24 Copy CRC 78AB6D24 Copy OK
Track 2
Filename D:\Documents and Settings\branou\Mes documents\High Tone & Improvisators Dub\02 Early dub.wav
Peak level 98.8 % Track quality 99.9 % Test CRC E97DE65F Copy CRC E97DE65F Copy OK
Track 3
Filename D:\Documents and Settings\branou\Mes documents\High Tone & Improvisators Dub\03 Early dub.wav
Peak level 98.9 % Track quality 100.0 % Test CRC C3EA4C53 Copy CRC C3EA4C53 Copy OK
Track 4
Filename D:\Documents and Settings\branou\Mes documents\High Tone & Improvisators Dub\04 Drongo dub.wav
Peak level 98.9 % Track quality 100.0 % Test CRC 2742150E Copy CRC 2742150E Copy OK
Track 5
Filename D:\Documents and Settings\branou\Mes documents\High Tone & Improvisators Dub\05 Dub Fever.wav Peak level 98.9 % Track quality 100.0 % Test CRC 735D3BC0 Copy CRC 735D3BC0 Copy OK
Track 6
Filename D:\Documents and Settings\branou\Mes documents\High Tone & Improvisators Dub\06 U-Man Bass.wav
Peak level 98.9 % Track quality 100.0 % Test CRC DE0420BC Copy CRC DE0420BC Copy OK
Track 7
Filename D:\Documents and Settings\branou\Mes documents\High Tone & Improvisators Dub\07 U-Man Bass.wav
Peak level 98.9 % Track quality 100.0 % Test CRC 4D927A39 Copy CRC 4D927A39 Copy OK
Track 8
Filename D:\Documents and Settings\branou\Mes documents\High Tone & Improvisators Dub\08 Keep on fire.wav
Peak level 98.9 % Track quality 100.0 % Test CRC 29D07971 Copy CRC 29D07971 Copy OK
Track 9
Filename D:\Documents and Settings\branou\Mes documents\High Tone & Improvisators Dub\09 Dirty eighty.wav
Peak level 98.9 % Track quality 100.0 % Test CRC 5E95AEF1 Copy CRC 5E95AEF1 Copy OK
No errors occurred
End of status report
-совместный проект Improvisators Dub и High Tone-
Вы не можете начинать темы
Вы не можете отвечать на сообщения
Вы не можете редактировать свои сообщения
Вы не можете удалять свои сообщения
Вы не можете голосовать в опросах
Вы не можете прикреплять файлы к сообщениям
Вы можете скачивать файлы
!ВНИМАНИЕ!

Сайт не предоставляет электронные версии произведений, а занимается лишь коллекционированием и каталогизацией ссылок, присылаемых и публикуемых на форуме нашими читателями. Если вы являетесь правообладателем какого-либо представленного материала и не желаете, чтобы ссылка на него находилась в нашем каталоге, свяжитесь с нами, и мы незамедлительно удалим ее. Файлы для обмена на трекере предоставлены пользователями сайта, и администрация не несет ответственности за их содержание. Просьба не заливать файлы, защищенные авторскими правами, а также файлы нелегального содержания!

Искали программы, игры, дополнения, музыка mp3, аниме, аудио книги, журналы? Добро пожаловать на свободный торрент трекер Torrents, у нас можно скачать бесплатно, без смс и регистрации и прочих ограничений лучшие, отборные сборки программ, игр. Скачать торрентом не составит труда даже не опытному пользователю. Раздачи ежедневно обновляются, только лучшие и качественные раздачи, подробные описания и скриншоты. Огромная коллекция программ для работы со звуком, графикой, дизайном, а так же множество плагинов и инструментов к ним с подробной инструкцией и рекомендациями. Прошивки для навигаторов, карты. Разнообразные игры, для Windows, Linux. В коллекцие есть и старые игры любых жанров, Rpg, Action, Shooter, strategy Множество дополнений, модификаций, сценариев для популярных игр в жанре экш, рпг, гонки, стратегии, логические игры. Множество аддонов и сценариев для Microsoft Flight Simulator Большая коллекция книг, учебников. Если нет возможности купить печатное издание - смело скачивайте цифровую версию книги или, быть может, журнала. Не любите читать - можно загрузить бесплатно аудикнигу. Для веб дизайнеров и программистов так же найдется множество специализированного софта, таких как: редакторы с подсветкой, среды программирования, компоненты, системы управления базами данных, разнообразные скрипты и шаблоны. Не так давно у нас появился материал для автолюбителей и владельцев мото - оригинальные и неоригинальные каталоги запчастей, книги и журналы по ремонту и обслуживанию, видеоуроки, статьи по чип тюнингу, прошивкам. Процедура получения контента элементарная, достаточно просто скачать торрент файл и добавить его в загрузку в вашем торрент клиенте. Если у вас нет специального торрент клиента, вы можете его скачать у нас.