846 مسلسلات كورية مسلسل Khun Mae Suam Roy الحلقة 4 الرابعة مترجمة مشاهدة مسلسل Khun Mae Suam Roy الحلقة 4 الرابعة مترجمة تحميل مسلسل Khun Mae Suam Roy الحلقة 4 الرابعة مترجمة | 1x10 El Host | Ballroom e Youkoso Episode 10

(Breakbeat, Progressive House, Dub) Dub Pistols - Speakers & Tweeters - 2007, FLAC (tracks+.cue), lossless 

Цитировать
Dub Pistols - Speakers & Tweeters
Жанр: Breakbeat, Progressive House, Dub
Год выпуска диска: 2007
Производитель диска: UK
Аудио кодек: FLAC
Тип рипа: tracks+.cue
Битрейт аудио: lossless
Продолжительность: 48:53
Трэклист:
1 Speed Of Light
2 Peaches
3 Speakers And Tweeters
4 Running From The Thoughts
5 Rapture
6 Cruise Control
7 Open
8 You'll Never Find
9 Gangsters
10 Something To Trust
11 Mach 10
12 Stronger
13 Gave You Time

Log EAC

Exact Audio Copy V0.99 prebeta 3 from 28. July 2007
EAC extraction logfile from 21. December 2007, 12:08
The Dub Pistols / Speakers & Tweeters
Used drive : PLEXTOR DVDR PX-760A Adapter: 0 ID: 0
Read mode : SecureUtilize accurate stream : YesDefeat audio cache : YesMake use of C2 pointers : No
Read offset correction : 30Overread into Lead-In and Lead-Out : YesFill up missing offset samples with silence : YesDelete leading and trailing silent blocks : NoNull samples used in CRC calculations : YesUsed interface : Native Win32 interface for Win NT & 2000Gap handling : Appended to previous track
Used output format : User Defined EncoderSelected bitrate : 128 kBit/sQuality : HighAdd ID3 tag : NoCommand line compressor : C:\Programmer\Exact Audio Copy\Flac\flac.exeAdditional command line options : -8 -A tukey(0.25) -A gauss(0.1875) -b 4096 -V -T "artist=%a" -T "title=%t" -T "album=%g" -T "date=%y" -T "tracknumber=%n" -T "genre=%m" %s --sector-align
TOC of the extracted CD
Track | Start | Length | Start sector | End sector --------------------------------------------------------- 1 | 0:00.00 | 4:06.16 | 0 | 18465 2 | 4:06.16 | 3:11.59 | 18466 | 32849 3 | 7:18.00 | 3:48.26 | 32850 | 49975 4 | 11:06.26 | 4:10.24 | 49976 | 68749 5 | 15:16.50 | 3:52.44 | 68750 | 86193 6 | 19:09.19 | 3:27.19 | 86194 | 101737 7 | 22:36.38 | 4:08.69 | 101738 | 120406 8 | 26:45.32 | 4:21.03 | 120407 | 139984 9 | 31:06.35 | 2:59.07 | 139985 | 153416 10 | 34:05.42 | 3:31.11 | 153417 | 169252 11 | 37:36.53 | 3:45.03 | 169253 | 186130 12 | 41:21.56 | 3:52.32 | 186131 | 203562 13 | 45:14.13 | 3:43.35 | 203563 | 220322
Track 1
Filename C:\01. , Speed Of Light.wav
Pre-gap length 0:00:02.00
Peak level 99.6 % Track quality 100.0 % Test CRC 915A13B7 Copy CRC 915A13B7 Accurately ripped (confidence 2) [A014E442] Copy OK
Track 2
Filename C:\02. , Peaches.wav
Peak level 99.6 % Track quality 100.0 % Test CRC 17C2525C Copy CRC 17C2525C Accurately ripped (confidence 2) [481BFAB4] Copy OK
Track 3
Filename C:\03. , Speakers & Tweeters.wav
Peak level 99.7 % Track quality 100.0 % Test CRC EC67B267 Copy CRC EC67B267 Accurately ripped (confidence 2) [044C3138] Copy OK
Track 4
Filename C:\04. , Running From The Thoughts.wav
Peak level 99.6 % Track quality 100.0 % Test CRC 61C67C0B Copy CRC 61C67C0B Accurately ripped (confidence 2) [060E74E1] Copy OK
Track 5
Filename C:\05. , Rapture.wav
Peak level 99.6 % Track quality 100.0 % Test CRC 1BCBF1B6 Copy CRC 1BCBF1B6 Accurately ripped (confidence 2) [59C3E275] Copy OK
Track 6
Filename C:\06. , Cruise Control.wav
Peak level 99.6 % Track quality 100.0 % Test CRC E41BD28E Copy CRC E41BD28E Accurately ripped (confidence 2) [7DC70481] Copy OK
Track 7
Filename C:\07. , Open.wav
Peak level 99.6 % Track quality 100.0 % Test CRC B1535B2E Copy CRC B1535B2E Accurately ripped (confidence 2) [5CFD4327] Copy OK
Track 8
Filename C:\08. , You'll Never Find.wav
Peak level 99.6 % Track quality 100.0 % Test CRC 49F6CE84 Copy CRC 49F6CE84 Accurately ripped (confidence 2) [11B1B91B] Copy OK
Track 9
Filename C:\09. , Gangsters.wav
Peak level 99.6 % Track quality 100.0 % Test CRC F1E1A948 Copy CRC F1E1A948 Accurately ripped (confidence 2) [ACEF6002] Copy OK
Track 10
Filename C:\10. , Something To Trust.wav
Peak level 99.6 % Track quality 100.0 % Test CRC 4D07657E Copy CRC 4D07657E Accurately ripped (confidence 2) [E8EEAE7B] Copy OK
Track 11
Filename C:\11. , Mach 10.wav
Peak level 99.6 % Track quality 100.0 % Test CRC 50F2CD2C Copy CRC 50F2CD2C Accurately ripped (confidence 2) [083F469D] Copy OK
Track 12
Filename C:\12. , Stronger.wav
Peak level 99.6 % Track quality 99.9 % Test CRC DEFB8E4E Copy CRC DEFB8E4E Accurately ripped (confidence 2) [9D6F7A82] Copy OK
Track 13
Filename C:\13. , Gave You Time.wav
Peak level 99.6 % Track quality 99.9 % Test CRC 16CA50C0 Copy CRC 16CA50C0 Accurately ripped (confidence 2) [C4DACD02] Copy OK
All tracks accurately ripped
No errors occurred
End of status report
Вы не можете начинать темы
Вы не можете отвечать на сообщения
Вы не можете редактировать свои сообщения
Вы не можете удалять свои сообщения
Вы не можете голосовать в опросах
Вы не можете прикреплять файлы к сообщениям
Вы можете скачивать файлы
!ВНИМАНИЕ!

Сайт не предоставляет электронные версии произведений, а занимается лишь коллекционированием и каталогизацией ссылок, присылаемых и публикуемых на форуме нашими читателями. Если вы являетесь правообладателем какого-либо представленного материала и не желаете, чтобы ссылка на него находилась в нашем каталоге, свяжитесь с нами, и мы незамедлительно удалим ее. Файлы для обмена на трекере предоставлены пользователями сайта, и администрация не несет ответственности за их содержание. Просьба не заливать файлы, защищенные авторскими правами, а также файлы нелегального содержания!

Искали программы, игры, дополнения, музыка mp3, аниме, аудио книги, журналы? Добро пожаловать на свободный торрент трекер Torrents, у нас можно скачать бесплатно, без смс и регистрации и прочих ограничений лучшие, отборные сборки программ, игр. Скачать торрентом не составит труда даже не опытному пользователю. Раздачи ежедневно обновляются, только лучшие и качественные раздачи, подробные описания и скриншоты. Огромная коллекция программ для работы со звуком, графикой, дизайном, а так же множество плагинов и инструментов к ним с подробной инструкцией и рекомендациями. Прошивки для навигаторов, карты. Разнообразные игры, для Windows, Linux. В коллекцие есть и старые игры любых жанров, Rpg, Action, Shooter, strategy Множество дополнений, модификаций, сценариев для популярных игр в жанре экш, рпг, гонки, стратегии, логические игры. Множество аддонов и сценариев для Microsoft Flight Simulator Большая коллекция книг, учебников. Если нет возможности купить печатное издание - смело скачивайте цифровую версию книги или, быть может, журнала. Не любите читать - можно загрузить бесплатно аудикнигу. Для веб дизайнеров и программистов так же найдется множество специализированного софта, таких как: редакторы с подсветкой, среды программирования, компоненты, системы управления базами данных, разнообразные скрипты и шаблоны. Не так давно у нас появился материал для автолюбителей и владельцев мото - оригинальные и неоригинальные каталоги запчастей, книги и журналы по ремонту и обслуживанию, видеоуроки, статьи по чип тюнингу, прошивкам. Процедура получения контента элементарная, достаточно просто скачать торрент файл и добавить его в загрузку в вашем торрент клиенте. Если у вас нет специального торрент клиента, вы можете его скачать у нас.