Pixi Saves Christmas 2018 HDRip XviD AC3-EVO | X Men Apocalypse 2016 720p BluRay DD 5 1 Hindi + English x264 Phantoms | MistyRain Lyrics

(Breakbeat, Electro) Plump DJs - Headthrash - 2008, FLAC (tracks+.cue), lossless 

Цитировать
Plump DJs - Headthrash
Жанр: Breakbeat, Electro
Год выпуска диска: 2008
Производитель диска: Finger Lickin' Records / FLRCD021
Аудио кодек: FLAC
Тип рипа: tracks+.cue
Битрейт аудио: lossless
Продолжительность: 00:55:07
Трэклист:
1 Best Believe Us (3:05)
2 System Addict (4:12)
3 Shifting Gears (2:45)
4 Snake Eyes (3:35)
5 He Got Beef (4:39)
6 Intermission (2:09)
7 Theme X (3:35)
8 S.N.A.F.U (4:37)
9 Beat Myself Up (4:18)
10 Disco Unusual (3:03)
11 Victim (4:48)
12 Rocket Soul (4:25)
13 Torque Of The Devil (5:35)
14 Lost In Space (4:15)
www.discogs.com/release/1392312

Лог EAC

Exact Audio Copy V0.99 prebeta 4 from 23. January 2008
EAC extraction logfile from 9. July 2008, 18:18
Plump DJs / Headthrash
Used drive : PIONEER DVD-RW DVR-115D Adapter: 1 ID: 0
Read mode : SecureUtilize accurate stream : YesDefeat audio cache : YesMake use of C2 pointers : No
Read offset correction : 48Overread into Lead-In and Lead-Out : NoFill up missing offset samples with silence : YesDelete leading and trailing silent blocks : NoNull samples used in CRC calculations : YesUsed interface : Native Win32 interface for Win NT & 2000Gap handling : Appended to previous track
Used output format : User Defined EncoderSelected bitrate : 128 kBit/sQuality : HighAdd ID3 tag : NoCommand line compressor : C:\Program Files\Exact Audio Copy\Flac\flac.exeAdditional command line options : -V -8 -T "artist=%a" -T "title=%t" -T "album=%g" -T "date=%y" -T "tracknumber=%n" -T "genre=%m" %s
TOC of the extracted CD
Track | Start | Length | Start sector | End sector --------------------------------------------------------- 1 | 0:00.00 | 3:05.04 | 0 | 13878 2 | 3:05.04 | 4:12.56 | 13879 | 32834 3 | 7:17.60 | 2:45.70 | 32835 | 45279 4 | 10:03.55 | 3:35.55 | 45280 | 61459 5 | 13:39.35 | 4:39.21 | 61460 | 82405 6 | 18:18.56 | 2:09.51 | 82406 | 92131 7 | 20:28.32 | 3:35.67 | 92132 | 108323 8 | 24:04.24 | 4:37.05 | 108324 | 129103 9 | 28:41.29 | 4:18.54 | 129104 | 148507 10 | 33:00.08 | 3:03.01 | 148508 | 162233 11 | 36:03.09 | 4:48.01 | 162234 | 183834 12 | 40:51.10 | 4:25.52 | 183835 | 203761 13 | 45:16.62 | 5:35.40 | 203762 | 228926 14 | 50:52.27 | 4:15.13 | 228927 | 248064
Track 1
Filename D:\Ripping\Plump DJs - Headthrash (2008)\01 - Best Believe Us.wav
Pre-gap length 0:00:02.00
Peak level 98.9 % Track quality 100.0 % Test CRC 4D8D0894 Copy CRC 4D8D0894 Track not present in AccurateRip database Copy OK
Track 2
Filename D:\Ripping\Plump DJs - Headthrash (2008)\02 - System Addict.wav
Peak level 98.9 % Track quality 100.0 % Test CRC 605177F5 Copy CRC 605177F5 Track not present in AccurateRip database Copy OK
Track 3
Filename D:\Ripping\Plump DJs - Headthrash (2008)\03 - Shifting Gears.wav
Peak level 98.9 % Track quality 100.0 % Test CRC 086DA217 Copy CRC 086DA217 Track not present in AccurateRip database Copy OK
Track 4
Filename D:\Ripping\Plump DJs - Headthrash (2008)\04 - Snake Eyes.wav
Peak level 98.9 % Track quality 100.0 % Test CRC 13235FF1 Copy CRC 13235FF1 Track not present in AccurateRip database Copy OK
Track 5
Filename D:\Ripping\Plump DJs - Headthrash (2008)\05 - He Got Beef.wav
Peak level 98.9 % Track quality 99.9 % Test CRC BBFC15A2 Copy CRC BBFC15A2 Track not present in AccurateRip database Copy OK
Track 6
Filename D:\Ripping\Plump DJs - Headthrash (2008)\06 - Intermission.wav
Peak level 98.9 % Track quality 100.0 % Test CRC 4C48DDA7 Copy CRC 4C48DDA7 Track not present in AccurateRip database Copy OK
Track 7
Filename D:\Ripping\Plump DJs - Headthrash (2008)\07 - Theme X.wav
Peak level 98.9 % Track quality 100.0 % Test CRC 2151B047 Copy CRC 2151B047 Track not present in AccurateRip database Copy OK
Track 8
Filename D:\Ripping\Plump DJs - Headthrash (2008)\08 - S.N.A.F.U..wav
Peak level 98.9 % Track quality 100.0 % Test CRC 07816911 Copy CRC 07816911 Track not present in AccurateRip database Copy OK
Track 9
Filename D:\Ripping\Plump DJs - Headthrash (2008)\09 - Beat Myself Up.wav
Peak level 98.9 % Track quality 100.0 % Test CRC B7D1E1E7 Copy CRC B7D1E1E7 Track not present in AccurateRip database Copy OK
Track 10
Filename D:\Ripping\Plump DJs - Headthrash (2008)\10 - Disco Unusual.wav
Peak level 98.9 % Track quality 100.0 % Test CRC 30C44D19 Copy CRC 30C44D19 Track not present in AccurateRip database Copy OK
Track 11
Filename D:\Ripping\Plump DJs - Headthrash (2008)\11 - Victim.wav
Peak level 98.9 % Track quality 100.0 % Test CRC 8496BF07 Copy CRC 8496BF07 Track not present in AccurateRip database Copy OK
Track 12
Filename D:\Ripping\Plump DJs - Headthrash (2008)\12 - Rocket Soul.wav
Peak level 98.9 % Track quality 100.0 % Test CRC A1033A4F Copy CRC A1033A4F Track not present in AccurateRip database Copy OK
Track 13
Filename D:\Ripping\Plump DJs - Headthrash (2008)\13 - Torque of the Devil.wav
Peak level 98.9 % Track quality 100.0 % Test CRC 71CC846D Copy CRC 71CC846D Track not present in AccurateRip database Copy OK
Track 14
Filename D:\Ripping\Plump DJs - Headthrash (2008)\14 - Lost in Space.wav
Peak level 98.9 % Track quality 100.0 % Test CRC A163636D Copy CRC A163636D Track not present in AccurateRip database Copy OK
None of the tracks are present in the AccurateRip database
No errors occurred
End of status report

Лог Audiochecker

01 -===- F:\what\Plump DJs - Headthrash (2008)(Lossless)\01 - Best Believe Us.flac  Extracted successfully  Conclusion: this track is CDDA with probability 100%  Tempfile successfully deleted.
02 -===- F:\what\Plump DJs - Headthrash (2008)(Lossless)\02 - System Addict.flac Extracted successfully Conclusion: this track is CDDA with probability 100% Tempfile successfully deleted.
03 -===- F:\what\Plump DJs - Headthrash (2008)(Lossless)\03 - Shifting Gears.flac Extracted successfully Conclusion: this track is CDDA with probability 100% Tempfile successfully deleted.
04 -===- F:\what\Plump DJs - Headthrash (2008)(Lossless)\04 - Snake Eyes.flac Extracted successfully Conclusion: this track is CDDA with probability 100% Tempfile successfully deleted.
05 -===- F:\what\Plump DJs - Headthrash (2008)(Lossless)\05 - He Got Beef.flac Extracted successfully Conclusion: this track is CDDA with probability 100% Tempfile successfully deleted.
06 -===- F:\what\Plump DJs - Headthrash (2008)(Lossless)\06 - Intermission.flac Extracted successfully Conclusion: this track is CDDA with probability 100% Tempfile successfully deleted.
07 -===- F:\what\Plump DJs - Headthrash (2008)(Lossless)\07 - Theme X.flac Extracted successfully Conclusion: this track is CDDA with probability 100% Tempfile successfully deleted.
08 -===- F:\what\Plump DJs - Headthrash (2008)(Lossless)\08 - S.N.A.F.U..flac Extracted successfully Conclusion: this track is CDDA with probability 100% Tempfile successfully deleted.
09 -===- F:\what\Plump DJs - Headthrash (2008)(Lossless)\09 - Beat Myself Up.flac Extracted successfully Conclusion: this track is CDDA with probability 100% Tempfile successfully deleted.
10 -===- F:\what\Plump DJs - Headthrash (2008)(Lossless)\10 - Disco Unusual.flac Extracted successfully Conclusion: this track is CDDA with probability 99% Tempfile successfully deleted.
11 -===- F:\what\Plump DJs - Headthrash (2008)(Lossless)\11 - Victim.flac Extracted successfully Conclusion: this track is CDDA with probability 100% Tempfile successfully deleted.
12 -===- F:\what\Plump DJs - Headthrash (2008)(Lossless)\12 - Rocket Soul.flac Extracted successfully Conclusion: this track is CDDA with probability 100% Tempfile successfully deleted.
13 -===- F:\what\Plump DJs - Headthrash (2008)(Lossless)\13 - Torque of the Devil.flac Extracted successfully Conclusion: this track is CDDA with probability 100% Tempfile successfully deleted.
14 -===- F:\what\Plump DJs - Headthrash (2008)(Lossless)\14 - Lost in Space.flac Extracted successfully Conclusion: this track is CDDA with probability 100% Tempfile successfully deleted.
Вы не можете начинать темы
Вы не можете отвечать на сообщения
Вы не можете редактировать свои сообщения
Вы не можете удалять свои сообщения
Вы не можете голосовать в опросах
Вы не можете прикреплять файлы к сообщениям
Вы можете скачивать файлы
!ВНИМАНИЕ!

Сайт не предоставляет электронные версии произведений, а занимается лишь коллекционированием и каталогизацией ссылок, присылаемых и публикуемых на форуме нашими читателями. Если вы являетесь правообладателем какого-либо представленного материала и не желаете, чтобы ссылка на него находилась в нашем каталоге, свяжитесь с нами, и мы незамедлительно удалим ее. Файлы для обмена на трекере предоставлены пользователями сайта, и администрация не несет ответственности за их содержание. Просьба не заливать файлы, защищенные авторскими правами, а также файлы нелегального содержания!

Искали программы, игры, дополнения, музыка mp3, аниме, аудио книги, журналы? Добро пожаловать на свободный торрент трекер Torrents, у нас можно скачать бесплатно, без смс и регистрации и прочих ограничений лучшие, отборные сборки программ, игр. Скачать торрентом не составит труда даже не опытному пользователю. Раздачи ежедневно обновляются, только лучшие и качественные раздачи, подробные описания и скриншоты. Огромная коллекция программ для работы со звуком, графикой, дизайном, а так же множество плагинов и инструментов к ним с подробной инструкцией и рекомендациями. Прошивки для навигаторов, карты. Разнообразные игры, для Windows, Linux. В коллекцие есть и старые игры любых жанров, Rpg, Action, Shooter, strategy Множество дополнений, модификаций, сценариев для популярных игр в жанре экш, рпг, гонки, стратегии, логические игры. Множество аддонов и сценариев для Microsoft Flight Simulator Большая коллекция книг, учебников. Если нет возможности купить печатное издание - смело скачивайте цифровую версию книги или, быть может, журнала. Не любите читать - можно загрузить бесплатно аудикнигу. Для веб дизайнеров и программистов так же найдется множество специализированного софта, таких как: редакторы с подсветкой, среды программирования, компоненты, системы управления базами данных, разнообразные скрипты и шаблоны. Не так давно у нас появился материал для автолюбителей и владельцев мото - оригинальные и неоригинальные каталоги запчастей, книги и журналы по ремонту и обслуживанию, видеоуроки, статьи по чип тюнингу, прошивкам. Процедура получения контента элементарная, достаточно просто скачать торрент файл и добавить его в загрузку в вашем торрент клиенте. Если у вас нет специального торрент клиента, вы можете его скачать у нас.