épisode 10 streaming | épisode 9 streaming | épisode 8 streaming

(Breakbeat, House, Techno) [CDM] Azzido Da Bass feat. Roland Clark - Speed (Can You Feel It?) - 2002, FLAC (tracks+.cue), lossless 

Цитировать
Azzido Da Bass feat. Roland Clark / Speed (Can You Feel It?)
Жанр: Breakbeat, House, Techno
Носитель: CDM
Год издания: 2002
Издатель (лейбл): Club Tools
Номер по каталогу: 0132345CLU
Аудиокодек: FLAC (*.flac)
Тип рипа: tracks+.cue
Битрейт аудио: lossless
Продолжительность: 38:46
Источник (релизер): свой рип
Наличие сканов в содержимом раздачи: да
Треклист:
01. Azzido Da Bass feat. Roland Clark - Speed (Can You Feel It?) (Azzido Da Bass Breakspeed Edit) [3:14]
02. Azzido Da Bass feat. Roland Clark - Speed (Can You Feel It?) (Azzido Da Bass Techbreak Mix) [3:16]
03. Azzido Da Bass feat. Roland Clark - Speed (Can You Feel It?) (Azzido Da Bass Breakspeed Mix) [6:33]
04. Azzido Da Bass feat. Roland Clark - Speed (Can You Feel It?) (Jan Driver Remix) [6:10]
05. Azzido Da Bass feat. Roland Clark - Speed (Can You Feel It?) (Oliver Klein's Deep Vocal Mix) [9:04]
06. Azzido Da Bass feat. Roland Clark - Speed (Can You Feel It?) (DJ Gregory Dubate) [5:12]
07. Azzido Da Bass feat. Roland Clark - Speed (Can You Feel It?) (Blowfelt Vocal Mix) [5:18]

Лог создания рипа

Exact Audio Copy V1.3 from 2. September 2016
EAC extraction logfile from 16. November 2017, 22:00
Azzido Da Bass feat. Roland Clark / Speed (Can You Feel It?)
Used drive : ASUS DRW-24B5ST Adapter: 6 ID: 0
Read mode : SecureUtilize accurate stream : YesDefeat audio cache : YesMake use of C2 pointers : No
Read offset correction : 6Overread into Lead-In and Lead-Out : NoFill up missing offset samples with silence : YesDelete leading and trailing silent blocks : NoNull samples used in CRC calculations : YesUsed interface : Installed external ASPI interfaceGap handling : Appended to previous track
Used output format : User Defined EncoderSelected bitrate : 128 kBit/sQuality : HighAdd ID3 tag : NoCommand line compressor : D:\flac-1.3.2-win\win64\flac.exeAdditional command line options : -8 -V -T "ARTIST=%artist%" -T "TITLE=%title%" -T "ALBUM=%albumtitle%" -T "DATE=%year%" -T "TRACKNUMBER=%tracknr%" -T "GENRE=%genre%" -T "COMMENT=ripped by Andy aka yetiisyou" %source%
TOC of the extracted CD
Track | Start | Length | Start sector | End sector --------------------------------------------------------- 1 | 0:00.00 | 3:13.70 | 0 | 14544 2 | 3:13.70 | 3:16.10 | 14545 | 29254 3 | 6:30.05 | 6:32.45 | 29255 | 58699 4 | 13:02.50 | 6:10.20 | 58700 | 86469 5 | 19:12.70 | 9:03.62 | 86470 | 127256 6 | 28:16.57 | 5:12.15 | 127257 | 150671 7 | 33:28.72 | 5:17.40 | 150672 | 174486
Track 1
Filename E:\!Ripped by Andy aka yetiisyou\Azzido Da Bass feat. Roland Clark - Speed (Can You Feel It) [0132345CLU] [2002]\01. Azzido Da Bass feat. Roland Clark - Speed (Can You Feel It) (Azzido Da Bass Breakspeed Edit).wav
Pre-gap length 0:00:02.00
Peak level 67.1 % Extraction speed 4.0 X Track quality 100.0 % Test CRC 4C2E6507 Copy CRC 4C2E6507 Accurately ripped (confidence 1) [468B93B6] (AR v2) Copy OK
Track 2
Filename E:\!Ripped by Andy aka yetiisyou\Azzido Da Bass feat. Roland Clark - Speed (Can You Feel It) [0132345CLU] [2002]\02. Azzido Da Bass feat. Roland Clark - Speed (Can You Feel It) (Azzido Da Bass Techbreak Mix).wav
Pre-gap length 0:00:01.43
Peak level 93.3 % Extraction speed 4.4 X Track quality 100.0 % Test CRC F69BFC0E Copy CRC F69BFC0E Accurately ripped (confidence 1) [300E75A3] (AR v2) Copy OK
Track 3
Filename E:\!Ripped by Andy aka yetiisyou\Azzido Da Bass feat. Roland Clark - Speed (Can You Feel It) [0132345CLU] [2002]\03. Azzido Da Bass feat. Roland Clark - Speed (Can You Feel It) (Azzido Da Bass Breakspeed Mix).wav
Pre-gap length 0:00:01.43
Peak level 70.8 % Extraction speed 5.4 X Track quality 100.0 % Test CRC EF94C932 Copy CRC EF94C932 Accurately ripped (confidence 1) [EC3C8422] (AR v2) Copy OK
Track 4
Filename E:\!Ripped by Andy aka yetiisyou\Azzido Da Bass feat. Roland Clark - Speed (Can You Feel It) [0132345CLU] [2002]\04. Azzido Da Bass feat. Roland Clark - Speed (Can You Feel It) (Jan Driver Remix).wav
Pre-gap length 0:00:01.43
Peak level 70.7 % Extraction speed 6.0 X Track quality 100.0 % Test CRC B9AEC1B6 Copy CRC B9AEC1B6 Accurately ripped (confidence 1) [C551CFF5] (AR v2) Copy OK
Track 5
Filename E:\!Ripped by Andy aka yetiisyou\Azzido Da Bass feat. Roland Clark - Speed (Can You Feel It) [0132345CLU] [2002]\05. Azzido Da Bass feat. Roland Clark - Speed (Can You Feel It) (Oliver Klein's Deep Vocal Mix).wav
Pre-gap length 0:00:01.40
Peak level 83.3 % Extraction speed 6.2 X Track quality 99.9 % Test CRC 20A18173 Copy CRC 20A18173 Accurately ripped (confidence 1) [32D18B43] (AR v2) Copy OK
Track 6
Filename E:\!Ripped by Andy aka yetiisyou\Azzido Da Bass feat. Roland Clark - Speed (Can You Feel It) [0132345CLU] [2002]\06. Azzido Da Bass feat. Roland Clark - Speed (Can You Feel It) (DJ Gregory Dubate).wav
Pre-gap length 0:00:01.42
Peak level 99.9 % Extraction speed 7.1 X Track quality 100.0 % Test CRC 87A103CF Copy CRC 87A103CF Accurately ripped (confidence 1) [904B0BDE] (AR v2) Copy OK
Track 7
Filename E:\!Ripped by Andy aka yetiisyou\Azzido Da Bass feat. Roland Clark - Speed (Can You Feel It) [0132345CLU] [2002]\07. Azzido Da Bass feat. Roland Clark - Speed (Can You Feel It) (Blowfelt Vocal Mix).wav
Pre-gap length 0:00:01.42
Peak level 100.0 % Extraction speed 7.4 X Track quality 100.0 % Test CRC FB7B9773 Copy CRC FB7B9773 Accurately ripped (confidence 1) [BD268D31] (AR v2) Copy OK
All tracks accurately ripped
No errors occurred
End of status report
---- CUETools DB Plugin V2.1.6
[CTDB TOCID: 4ta_mccZg0hnD2EELYHZnoz8idQ-] foundSubmit result: 4ta_mccZg0hnD2EELYHZnoz8idQ- has been confirmedTrack | CTDB Status 1 | (9/9) Accurately ripped 2 | (9/9) Accurately ripped 3 | (9/9) Accurately ripped 4 | (9/9) Accurately ripped 5 | (9/9) Accurately ripped 6 | (8/9) Accurately ripped 7 | (8/9) Accurately ripped
==== Log checksum 389BF71C0B9A340D09EDD92A55F956177804E4B9C2D47F0E6FFD02D45C2A1417 ====

Содержание индексной карты (.CUE)

REM DATE 2002REM DISCID 58091607REM COMMENT "ExactAudioCopy v1.3"CATALOG 4029758323458PERFORMER "Azzido Da Bass feat. Roland Clark"TITLE "Speed (Can You Feel It?)"REM COMPOSER ""FILE "01. Azzido Da Bass feat. Roland Clark - Speed (Can You Feel It) (Azzido Da Bass Breakspeed Edit).wav" WAVE  TRACK 01 AUDIO    TITLE "Speed (Can You Feel It?) (Azzido Da Bass Breakspeed Edit)"    PERFORMER "Azzido Da Bass feat. Roland Clark"    REM COMPOSER ""    ISRC DEH840100476    INDEX 01 00:00:00  TRACK 02 AUDIO    TITLE "Speed (Can You Feel It?) (Azzido Da Bass Techbreak Mix)"    PERFORMER "Azzido Da Bass feat. Roland Clark"    REM COMPOSER ""    ISRC DEH840100416    INDEX 00 03:12:27FILE "02. Azzido Da Bass feat. Roland Clark - Speed (Can You Feel It) (Azzido Da Bass Techbreak Mix).wav" WAVE    INDEX 01 00:00:00  TRACK 03 AUDIO    TITLE "Speed (Can You Feel It?) (Azzido Da Bass Breakspeed Mix)"    PERFORMER "Azzido Da Bass feat. Roland Clark"    REM COMPOSER ""    ISRC DEH840100414    INDEX 00 03:14:42FILE "03. Azzido Da Bass feat. Roland Clark - Speed (Can You Feel It) (Azzido Da Bass Breakspeed Mix).wav" WAVE    INDEX 01 00:00:00  TRACK 04 AUDIO    TITLE "Speed (Can You Feel It?) (Jan Driver Remix)"    PERFORMER "Azzido Da Bass feat. Roland Clark"    REM COMPOSER ""    ISRC DEH840100418    INDEX 00 06:31:02FILE "04. Azzido Da Bass feat. Roland Clark - Speed (Can You Feel It) (Jan Driver Remix).wav" WAVE    INDEX 01 00:00:00  TRACK 05 AUDIO    TITLE "Speed (Can You Feel It?) (Oliver Klein's Deep Vocal Mix)"    PERFORMER "Azzido Da Bass feat. Roland Clark"    REM COMPOSER ""    ISRC DEH840100420    INDEX 00 06:08:55FILE "05. Azzido Da Bass feat. Roland Clark - Speed (Can You Feel It) (Oliver Klein's Deep Vocal Mix).wav" WAVE    INDEX 01 00:00:00  TRACK 06 AUDIO    TITLE "Speed (Can You Feel It?) (DJ Gregory Dubate)"    PERFORMER "Azzido Da Bass feat. Roland Clark"    REM COMPOSER ""    ISRC DEH840100419    INDEX 00 09:02:20FILE "06. Azzido Da Bass feat. Roland Clark - Speed (Can You Feel It) (DJ Gregory Dubate).wav" WAVE    INDEX 01 00:00:00  TRACK 07 AUDIO    TITLE "Speed (Can You Feel It?) (Blowfelt Vocal Mix)"    PERFORMER "Azzido Da Bass feat. Roland Clark"    REM COMPOSER ""    ISRC DEH840100423    INDEX 00 05:10:48FILE "07. Azzido Da Bass feat. Roland Clark - Speed (Can You Feel It) (Blowfelt Vocal Mix).wav" WAVE    INDEX 01 00:00:00
Вы не можете начинать темы
Вы не можете отвечать на сообщения
Вы не можете редактировать свои сообщения
Вы не можете удалять свои сообщения
Вы не можете голосовать в опросах
Вы не можете прикреплять файлы к сообщениям
Вы можете скачивать файлы
!ВНИМАНИЕ!

Сайт не предоставляет электронные версии произведений, а занимается лишь коллекционированием и каталогизацией ссылок, присылаемых и публикуемых на форуме нашими читателями. Если вы являетесь правообладателем какого-либо представленного материала и не желаете, чтобы ссылка на него находилась в нашем каталоге, свяжитесь с нами, и мы незамедлительно удалим ее. Файлы для обмена на трекере предоставлены пользователями сайта, и администрация не несет ответственности за их содержание. Просьба не заливать файлы, защищенные авторскими правами, а также файлы нелегального содержания!

Искали программы, игры, дополнения, музыка mp3, аниме, аудио книги, журналы? Добро пожаловать на свободный торрент трекер Torrents, у нас можно скачать бесплатно, без смс и регистрации и прочих ограничений лучшие, отборные сборки программ, игр. Скачать торрентом не составит труда даже не опытному пользователю. Раздачи ежедневно обновляются, только лучшие и качественные раздачи, подробные описания и скриншоты. Огромная коллекция программ для работы со звуком, графикой, дизайном, а так же множество плагинов и инструментов к ним с подробной инструкцией и рекомендациями. Прошивки для навигаторов, карты. Разнообразные игры, для Windows, Linux. В коллекцие есть и старые игры любых жанров, Rpg, Action, Shooter, strategy Множество дополнений, модификаций, сценариев для популярных игр в жанре экш, рпг, гонки, стратегии, логические игры. Множество аддонов и сценариев для Microsoft Flight Simulator Большая коллекция книг, учебников. Если нет возможности купить печатное издание - смело скачивайте цифровую версию книги или, быть может, журнала. Не любите читать - можно загрузить бесплатно аудикнигу. Для веб дизайнеров и программистов так же найдется множество специализированного софта, таких как: редакторы с подсветкой, среды программирования, компоненты, системы управления базами данных, разнообразные скрипты и шаблоны. Не так давно у нас появился материал для автолюбителей и владельцев мото - оригинальные и неоригинальные каталоги запчастей, книги и журналы по ремонту и обслуживанию, видеоуроки, статьи по чип тюнингу, прошивкам. Процедура получения контента элементарная, достаточно просто скачать торрент файл и добавить его в загрузку в вашем торрент клиенте. Если у вас нет специального торрент клиента, вы можете его скачать у нас.