ivy gets facefucked | Alien Shooter 1.2 | Crunchtime Corporations

(Breakbeat, Drum n Bass) [CD] Мегафон (Грув) - Lица - 2000, FLAC (tracks+.cue), lossless 

Цитировать
Мегафон (Грув) / Lица
Жанр: Breakbeat, Drum n Bass
Носитель: CD
Год издания: 2000
Издатель (лейбл): Extraphone
Номер по каталогу: Ex 00146
Аудиокодек: FLAC (*.flac)
Тип рипа: tracks+.cue
Битрейт аудио: lossless
Продолжительность: 57:55
Источник (релизер): обмен
Наличие сканов в содержимом раздачи: нет
Треклист:
01. Мегафон - Лицо 1 [5:14]
02. Мегафон - Лицо 2 [3:31]
03. Мегафон - Лицо 3 [5:25]
04. Мегафон - Лицо 4 [8:22]
05. Мегафон - Лицо 5 [7:07]
06. Мегафон - Лицо 6 [7:28]
07. Мегафон - Лицо 7 [7:30]
08. Мегафон - Лицо 8 [3:51]
09. Мегафон - Лицо 9 [5:31]
10. Мегафон - Лицо 10 [3:55]

Лог создания рипа

Exact Audio Copy V1.3 from 2. September 2016
EAC extraction logfile from 12. August 2017, 15:51
Мегафон / Lица
Used drive : PIONEER DVD-RW DVRTD11RS Adapter: 1 ID: 0
Read mode : SecureUtilize accurate stream : YesDefeat audio cache : YesMake use of C2 pointers : No
Read offset correction : 6Overread into Lead-In and Lead-Out : NoFill up missing offset samples with silence : YesDelete leading and trailing silent blocks : NoNull samples used in CRC calculations : YesUsed interface : Native Win32 interface for Win NT & 2000Gap handling : Appended to previous track
Used output format : User Defined EncoderSelected bitrate : 32 kBit/sQuality : HighAdd ID3 tag : NoCommand line compressor : C:\Soft\flac-1.3.2-win\win64\flac.exeAdditional command line options : -8 -e -p -V -T "ARTIST=%artist%" -T "TITLE=%title%" -T "ALBUM=%albumtitle%" -T "DATE=%year%" -T "TRACKNUMBER=%tracknr%" -T "GENRE=%genre%" -T "PERFORMER=%albuminterpret%" -T "COMPOSER=%composer%" %haslyrics%--tag-from-file=LYRICS="%lyricsfile%"%haslyrics% -T "ALBUMARTIST=%albumartist%" -T "DISCNUMBER=%cdnumber%" -T "TOTALDISCS=%totalcds%" -T "TOTALTRACKS=%numtracks%" -T "COMMENT=%comment%" %source% -o %dest%
TOC of the extracted CD
Track | Start | Length | Start sector | End sector --------------------------------------------------------- 1 | 0:00.00 | 5:14.04 | 0 | 23553 2 | 5:14.04 | 3:30.67 | 23554 | 39370 3 | 8:44.71 | 5:25.28 | 39371 | 63773 4 | 14:10.24 | 8:21.71 | 63774 | 101419 5 | 22:32.20 | 7:06.68 | 101420 | 133437 6 | 29:39.13 | 7:28.37 | 133438 | 167074 7 | 37:07.50 | 7:29.74 | 167075 | 200823 8 | 44:37.49 | 3:51.10 | 200824 | 218158 9 | 48:28.59 | 5:30.60 | 218159 | 242968 10 | 53:59.44 | 3:54.73 | 242969 | 260591
Track 1
Filename D:\Music\Мегафон - Lица (2000)\01. Лицо 1.wav
Pre-gap length 0:00:02.00
Peak level 94.1 % Extraction speed 1.3 X Track quality 99.9 % Test CRC 9751494A Copy CRC 9751494A Accurately ripped (confidence 1) [454F9303] (AR v2) Copy OK
Track 2
Filename D:\Music\Мегафон - Lица (2000)\02. Лицо 2.wav
Pre-gap length 0:00:01.45
Peak level 84.7 % Extraction speed 1.5 X Track quality 100.0 % Test CRC E1E729BC Copy CRC E1E729BC Accurately ripped (confidence 1) [BDB5E661] (AR v2) Copy OK
Track 3
Filename D:\Music\Мегафон - Lица (2000)\03. Лицо 3.wav
Pre-gap length 0:00:03.49
Peak level 100.0 % Extraction speed 1.6 X Track quality 99.9 % Test CRC 928B259E Copy CRC 928B259E Accurately ripped (confidence 1) [5DA6BF14] (AR v2) Copy OK
Track 4
Filename D:\Music\Мегафон - Lица (2000)\04. Лицо 4.wav
Pre-gap length 0:00:04.45
Peak level 97.7 % Extraction speed 1.9 X Track quality 99.9 % Test CRC 5EC1F7AF Copy CRC 5EC1F7AF Accurately ripped (confidence 1) [2AAC78D1] (AR v2) Copy OK
Track 5
Filename D:\Music\Мегафон - Lица (2000)\05. Лицо 5.wav
Pre-gap length 0:00:01.54
Peak level 78.6 % Extraction speed 2.0 X Track quality 99.9 % Test CRC 37AA922D Copy CRC 37AA922D Accurately ripped (confidence 1) [EA814406] (AR v2) Copy OK
Track 6
Filename D:\Music\Мегафон - Lица (2000)\06. Лицо 6.wav
Pre-gap length 0:00:03.57
Peak level 81.2 % Extraction speed 2.2 X Track quality 99.9 % Test CRC 85F811D7 Copy CRC 85F811D7 Accurately ripped (confidence 1) [E476B00E] (AR v2) Copy OK
Track 7
Filename D:\Music\Мегафон - Lица (2000)\07. Лицо 7.wav
Pre-gap length 0:00:03.50
Peak level 74.7 % Extraction speed 2.5 X Track quality 100.0 % Test CRC 6FD3D0EC Copy CRC 6FD3D0EC Accurately ripped (confidence 1) [50C00B0C] (AR v2) Copy OK
Track 8
Filename D:\Music\Мегафон - Lица (2000)\08. Лицо 8.wav
Pre-gap length 0:00:01.49
Peak level 95.6 % Extraction speed 2.5 X Track quality 100.0 % Test CRC 045331FA Copy CRC 045331FA Accurately ripped (confidence 1) [B17BCA18] (AR v2) Copy OK
Track 9
Filename D:\Music\Мегафон - Lица (2000)\09. Лицо 9.wav
Pre-gap length 0:00:03.61
Peak level 97.7 % Extraction speed 2.7 X Track quality 100.0 % Test CRC 82D999BF Copy CRC 82D999BF Accurately ripped (confidence 1) [E808B72E] (AR v2) Copy OK
Track 10
Filename D:\Music\Мегафон - Lица (2000)\10. Лицо 10.wav
Pre-gap length 0:00:01.48
Peak level 94.5 % Extraction speed 2.7 X Track quality 100.0 % Test CRC C17B2496 Copy CRC C17B2496 Accurately ripped (confidence 1) [A15D0730] (AR v2) Copy OK
All tracks accurately ripped
No errors occurred
End of status report
---- CUETools DB Plugin V2.1.6
[CTDB TOCID: N1GkjyiCZQmsEZt5mJXsUzTvaGI-] disk not present in databaseSubmit result: N1GkjyiCZQmsEZt5mJXsUzTvaGI- has been uploaded
==== Log checksum E050ADB6DAD5098128EE88C5590ED626D2A2D1C95413B442A1E5DA35C36E90B3 ====

Содержание индексной карты (.CUE)

REM GENRE "Breakbeat, Drum 'n' Bass"REM DATE 2000REM DISCID 830D920AREM COMMENT "ExactAudioCopy v1.3"PERFORMER "Мегафон"TITLE "Lица"REM COMPOSER ""FILE "01. Лицо 1.wav" WAVE  TRACK 01 AUDIO    TITLE "Лицо 1"    PERFORMER "Мегафон"    REM COMPOSER ""    INDEX 01 00:00:00  TRACK 02 AUDIO    TITLE "Лицо 2"    PERFORMER "Мегафон"    REM COMPOSER ""    INDEX 00 05:12:45FILE "02. Лицо 2.wav" WAVE    INDEX 01 00:00:00  TRACK 03 AUDIO    TITLE "Лицо 3"    PERFORMER "Мегафон"    REM COMPOSER ""    INDEX 00 03:27:30FILE "03. Лицо 3.wav" WAVE    INDEX 01 00:00:00  TRACK 04 AUDIO    TITLE "Лицо 4"    PERFORMER "Мегафон"    REM COMPOSER ""    INDEX 00 05:20:69FILE "04. Лицо 4.wav" WAVE    INDEX 01 00:00:00  TRACK 05 AUDIO    TITLE "Лицо 5"    PERFORMER "Мегафон"    REM COMPOSER ""    INDEX 00 08:20:30FILE "05. Лицо 5.wav" WAVE    INDEX 01 00:00:00  TRACK 06 AUDIO    TITLE "Лицо 6"    PERFORMER "Мегафон"    REM COMPOSER ""    INDEX 00 07:03:25FILE "06. Лицо 6.wav" WAVE    INDEX 01 00:00:00  TRACK 07 AUDIO    TITLE "Лицо 7"    PERFORMER "Мегафон"    REM COMPOSER ""    INDEX 00 07:24:74FILE "07. Лицо 7.wav" WAVE    INDEX 01 00:00:00  TRACK 08 AUDIO    TITLE "Лицо 8"    PERFORMER "Мегафон"    REM COMPOSER ""    INDEX 00 07:28:37FILE "08. Лицо 8.wav" WAVE    INDEX 01 00:00:00  TRACK 09 AUDIO    TITLE "Лицо 9"    PERFORMER "Мегафон"    REM COMPOSER ""    INDEX 00 03:47:39FILE "09. Лицо 9.wav" WAVE    INDEX 01 00:00:00  TRACK 10 AUDIO    TITLE "Лицо 10"    PERFORMER "Мегафон"    REM COMPOSER ""    INDEX 00 05:29:24FILE "10. Лицо 10.wav" WAVE    INDEX 01 00:00:00
Вы не можете начинать темы
Вы не можете отвечать на сообщения
Вы не можете редактировать свои сообщения
Вы не можете удалять свои сообщения
Вы не можете голосовать в опросах
Вы не можете прикреплять файлы к сообщениям
Вы можете скачивать файлы
!ВНИМАНИЕ!

Сайт не предоставляет электронные версии произведений, а занимается лишь коллекционированием и каталогизацией ссылок, присылаемых и публикуемых на форуме нашими читателями. Если вы являетесь правообладателем какого-либо представленного материала и не желаете, чтобы ссылка на него находилась в нашем каталоге, свяжитесь с нами, и мы незамедлительно удалим ее. Файлы для обмена на трекере предоставлены пользователями сайта, и администрация не несет ответственности за их содержание. Просьба не заливать файлы, защищенные авторскими правами, а также файлы нелегального содержания!

Искали программы, игры, дополнения, музыка mp3, аниме, аудио книги, журналы? Добро пожаловать на свободный торрент трекер Torrents, у нас можно скачать бесплатно, без смс и регистрации и прочих ограничений лучшие, отборные сборки программ, игр. Скачать торрентом не составит труда даже не опытному пользователю. Раздачи ежедневно обновляются, только лучшие и качественные раздачи, подробные описания и скриншоты. Огромная коллекция программ для работы со звуком, графикой, дизайном, а так же множество плагинов и инструментов к ним с подробной инструкцией и рекомендациями. Прошивки для навигаторов, карты. Разнообразные игры, для Windows, Linux. В коллекцие есть и старые игры любых жанров, Rpg, Action, Shooter, strategy Множество дополнений, модификаций, сценариев для популярных игр в жанре экш, рпг, гонки, стратегии, логические игры. Множество аддонов и сценариев для Microsoft Flight Simulator Большая коллекция книг, учебников. Если нет возможности купить печатное издание - смело скачивайте цифровую версию книги или, быть может, журнала. Не любите читать - можно загрузить бесплатно аудикнигу. Для веб дизайнеров и программистов так же найдется множество специализированного софта, таких как: редакторы с подсветкой, среды программирования, компоненты, системы управления базами данных, разнообразные скрипты и шаблоны. Не так давно у нас появился материал для автолюбителей и владельцев мото - оригинальные и неоригинальные каталоги запчастей, книги и журналы по ремонту и обслуживанию, видеоуроки, статьи по чип тюнингу, прошивкам. Процедура получения контента элементарная, достаточно просто скачать торрент файл и добавить его в загрузку в вашем торрент клиенте. Если у вас нет специального торрент клиента, вы можете его скачать у нас.