BluRay 720p | VA - Bravo Hits Vol.101 (2018) | Quality Anime Media and Streams

(Breakbeat, Breaks, Electro, Tech House) [2xCD] VA - DJ Lena Popova & DJ Arram Mantana - United Colours - 2005, FLAC (image+.cue), lossless 

Цитировать
DJ Lena Popova & DJ Arram Mantana - United Colours
Жанр: Breakbeat, Breaks, Electro, Tech House
Носитель: CD
Год издания: 2005
Издатель (лейбл): R'n'B Cafe Cadillac Records
Аудиокодек: FLAC (*.flac)
Тип рипа: image+.cue
Битрейт аудио: lossless
Продолжительность: 02:23:16
Источник (релизер): собственный рип
Наличие сканов в содержимом раздачи: да
Треклист:
CD 1
01. DJ Arram Mantana - United Colours [5:52]
02. DJ Arram Mantana - United Colours [4:51]
03. DJ Arram Mantana - United Colours [4:46]
04. DJ Arram Mantana - United Colours [5:37]
05. DJ Arram Mantana - United Colours [2:51]
06. DJ Arram Mantana - United Colours [4:28]
07. DJ Arram Mantana - United Colours [3:13]
08. DJ Arram Mantana - United Colours [4:43]
09. DJ Arram Mantana - United Colours [3:06]
10. DJ Arram Mantana - United Colours [3:59]
11. DJ Arram Mantana - United Colours [3:58]
12. DJ Arram Mantana - United Colours [6:12]
13. DJ Arram Mantana - United Colours [4:43]
14. DJ Arram Mantana - United Colours [4:44]
15. DJ Arram Mantana - United Colours [4:01]
CD 2
01. DJ Lena Popova - United Colours [7:17]
02. DJ Lena Popova - United Colours [3:39]
03. DJ Lena Popova - United Colours [5:36]
04. DJ Lena Popova - United Colours [3:02]
05. DJ Lena Popova - United Colours [3:05]
06. DJ Lena Popova - United Colours [2:46]
07. DJ Lena Popova - United Colours [5:06]
08. DJ Lena Popova - United Colours [4:22]
09. DJ Lena Popova - United Colours [5:35]
10. DJ Lena Popova - United Colours [5:34]
11. DJ Lena Popova - United Colours [8:13]
12. DJ Lena Popova - United Colours [5:52]
13. DJ Lena Popova - United Colours [4:51]
14. DJ Lena Popova - United Colours [5:05]
15. DJ Lena Popova - United Colours [6:08]

logs and sheets

Log EAC CD 1

Exact Audio Copy V1.3 from 2. September 2016
EAC extraction logfile from 25. January 2018, 13:43
DJ Arram Mantana / United Colours
Used drive : ASUS DRW-24B5ST Adapter: 6 ID: 0
Read mode : SecureUtilize accurate stream : YesDefeat audio cache : YesMake use of C2 pointers : No
Read offset correction : 6Overread into Lead-In and Lead-Out : NoFill up missing offset samples with silence : YesDelete leading and trailing silent blocks : NoNull samples used in CRC calculations : YesUsed interface : Installed external ASPI interface
Used output format : User Defined EncoderSelected bitrate : 128 kBit/sQuality : HighAdd ID3 tag : NoCommand line compressor : D:\flac-1.3.2-win\win64\flac.exeAdditional command line options : -V -8 -T "Date=%year%" -T "COMMENT=ripped by Andy aka yetiisyou" -T "Genre=%genre%" %source%
TOC of the extracted CD
Track | Start | Length | Start sector | End sector --------------------------------------------------------- 1 | 0:00.00 | 5:52.35 | 0 | 26434 2 | 5:52.35 | 4:50.60 | 26435 | 48244 3 | 10:43.20 | 4:46.33 | 48245 | 69727 4 | 15:29.53 | 5:37.08 | 69728 | 95010 5 | 21:06.61 | 2:51.34 | 95011 | 107869 6 | 23:58.20 | 4:28.24 | 107870 | 127993 7 | 28:26.44 | 3:13.36 | 127994 | 142504 8 | 31:40.05 | 4:42.74 | 142505 | 163728 9 | 36:23.04 | 3:05.70 | 163729 | 177673 10 | 39:28.74 | 3:58.40 | 177674 | 195563 11 | 43:27.39 | 3:58.11 | 195564 | 213424 12 | 47:25.50 | 6:12.27 | 213425 | 241351 13 | 53:38.02 | 4:43.24 | 241352 | 262600 14 | 58:21.26 | 4:43.45 | 262601 | 283870 15 | 63:04.71 | 4:01.10 | 283871 | 301955
Range status and errors
Selected range
Filename E:\!Ripped by Andy aka yetiisyou\VA - DJ Lena Popova & DJ Arram Mantana - United Colours [2005]\DJ Arram Mantana - United Colours.wav
Peak level 98.2 % Extraction speed 3.0 X Range quality 99.8 % Test CRC C2B3CA2D Copy CRC C2B3CA2D Copy OK
No errors occurred
AccurateRip summary
Track 1 not present in databaseTrack 2 not present in databaseTrack 3 not present in databaseTrack 4 not present in databaseTrack 5 not present in databaseTrack 6 not present in databaseTrack 7 not present in databaseTrack 8 not present in databaseTrack 9 not present in databaseTrack 10 not present in databaseTrack 11 not present in databaseTrack 12 not present in databaseTrack 13 not present in databaseTrack 14 not present in databaseTrack 15 not present in database
None of the tracks are present in the AccurateRip database
End of status report
---- CUETools DB Plugin V2.1.6
[CTDB TOCID: 10LJi.JMACRtaJe_j8mRRSAbsVc-] disk not present in databaseSubmit result: 10LJi.JMACRtaJe_j8mRRSAbsVc- has been uploaded
==== Log checksum FC26A408F520428FBE7A76DD0C7D3255707E44CAF4A3DDBEF19C846E4AB9B7A5 ====

cue CD 1

REM DATE 2005REM DISCID CC0FBA0FREM COMMENT "ExactAudioCopy v1.3"PERFORMER "DJ Arram Mantana"TITLE "United Colours"REM COMPOSER ""FILE "DJ Arram Mantana - United Colours.flac" WAVE  TRACK 01 AUDIO    TITLE "United Colours"    PERFORMER "DJ Arram Mantana"    REM COMPOSER ""    FLAGS DCP    INDEX 01 00:00:00  TRACK 02 AUDIO    TITLE "United Colours"    PERFORMER "DJ Arram Mantana"    REM COMPOSER ""    FLAGS DCP    INDEX 01 05:52:35  TRACK 03 AUDIO    TITLE "United Colours"    PERFORMER "DJ Arram Mantana"    REM COMPOSER ""    FLAGS DCP    INDEX 01 10:43:20  TRACK 04 AUDIO    TITLE "United Colours"    PERFORMER "DJ Arram Mantana"    REM COMPOSER ""    FLAGS DCP    INDEX 01 15:29:53  TRACK 05 AUDIO    TITLE "United Colours"    PERFORMER "DJ Arram Mantana"    REM COMPOSER ""    FLAGS DCP    INDEX 01 21:06:61  TRACK 06 AUDIO    TITLE "United Colours"    PERFORMER "DJ Arram Mantana"    REM COMPOSER ""    FLAGS DCP    INDEX 01 23:58:20  TRACK 07 AUDIO    TITLE "United Colours"    PERFORMER "DJ Arram Mantana"    REM COMPOSER ""    FLAGS DCP    INDEX 01 28:26:44  TRACK 08 AUDIO    TITLE "United Colours"    PERFORMER "DJ Arram Mantana"    REM COMPOSER ""    FLAGS DCP    INDEX 01 31:40:05  TRACK 09 AUDIO    TITLE "United Colours"    PERFORMER "DJ Arram Mantana"    REM COMPOSER ""    FLAGS DCP    INDEX 01 36:23:04  TRACK 10 AUDIO    TITLE "United Colours"    PERFORMER "DJ Arram Mantana"    REM COMPOSER ""    FLAGS DCP    INDEX 01 39:28:74  TRACK 11 AUDIO    TITLE "United Colours"    PERFORMER "DJ Arram Mantana"    REM COMPOSER ""    FLAGS DCP    INDEX 01 43:27:39  TRACK 12 AUDIO    TITLE "United Colours"    PERFORMER "DJ Arram Mantana"    REM COMPOSER ""    FLAGS DCP    INDEX 01 47:25:50  TRACK 13 AUDIO    TITLE "United Colours"    PERFORMER "DJ Arram Mantana"    REM COMPOSER ""    FLAGS DCP    INDEX 01 53:38:02  TRACK 14 AUDIO    TITLE "United Colours"    PERFORMER "DJ Arram Mantana"    REM COMPOSER ""    FLAGS DCP    INDEX 01 58:21:26  TRACK 15 AUDIO    TITLE "United Colours"    PERFORMER "DJ Arram Mantana"    REM COMPOSER ""    FLAGS DCP    INDEX 01 63:04:71

Log EAC CD 2

Exact Audio Copy V1.3 from 2. September 2016
EAC extraction logfile from 25. January 2018, 13:06
DJ Lena Popova / United Colours
Used drive : ASUS DRW-24B5ST Adapter: 6 ID: 0
Read mode : SecureUtilize accurate stream : YesDefeat audio cache : YesMake use of C2 pointers : No
Read offset correction : 6Overread into Lead-In and Lead-Out : NoFill up missing offset samples with silence : YesDelete leading and trailing silent blocks : NoNull samples used in CRC calculations : YesUsed interface : Installed external ASPI interface
Used output format : User Defined EncoderSelected bitrate : 128 kBit/sQuality : HighAdd ID3 tag : NoCommand line compressor : D:\flac-1.3.2-win\win64\flac.exeAdditional command line options : -V -8 -T "Date=%year%" -T "COMMENT=ripped by Andy aka yetiisyou" -T "Genre=%genre%" %source%
TOC of the extracted CD
Track | Start | Length | Start sector | End sector --------------------------------------------------------- 1 | 0:00.00 | 7:17.35 | 0 | 32809 2 | 7:17.35 | 3:38.41 | 32810 | 49200 3 | 10:56.01 | 5:35.50 | 49201 | 74375 4 | 16:31.51 | 3:01.44 | 74376 | 87994 5 | 19:33.20 | 3:04.54 | 87995 | 101848 6 | 22:37.74 | 2:45.62 | 101849 | 114285 7 | 25:23.61 | 5:05.69 | 114286 | 137229 8 | 30:29.55 | 4:21.44 | 137230 | 156848 9 | 34:51.24 | 5:34.47 | 156849 | 181945 10 | 40:25.71 | 5:34.28 | 181946 | 207023 11 | 46:00.24 | 8:13.12 | 207024 | 244010 12 | 54:13.36 | 5:52.36 | 244011 | 270446 13 | 60:05.72 | 4:50.57 | 270447 | 292253 14 | 64:56.54 | 5:04.48 | 292254 | 315101 15 | 70:01.27 | 6:08.23 | 315102 | 342724
Range status and errors
Selected range
Filename E:\!Ripped by Andy aka yetiisyou\VA - DJ Lena Popova & DJ Arram Mantana - United Colours [2005]\DJ Lena Popova - United Colours.wav
Peak level 100.0 % Extraction speed 6.5 X Range quality 99.9 % Test CRC 3332382C Copy CRC 3332382C Copy OK
No errors occurred
AccurateRip summary
Track 1 not present in databaseTrack 2 not present in databaseTrack 3 not present in databaseTrack 4 not present in databaseTrack 5 not present in databaseTrack 6 not present in databaseTrack 7 not present in databaseTrack 8 not present in databaseTrack 9 not present in databaseTrack 10 not present in databaseTrack 11 not present in databaseTrack 12 not present in databaseTrack 13 not present in databaseTrack 14 not present in databaseTrack 15 not present in database
None of the tracks are present in the AccurateRip database
End of status report
---- CUETools DB Plugin V2.1.6
[CTDB TOCID: .5Ooxs1qOFHUYbI_wCTPLgruHL8-] disk not present in databaseSubmit result: .5Ooxs1qOFHUYbI_wCTPLgruHL8- has been uploaded
==== Log checksum 78A881B28330A27E9320C72E6423E195AC52430DBB62DDDF6FA2B194D3D5FCA3 ====

cue CD 2

REM DATE 2005REM DISCID E611D90FREM COMMENT "ExactAudioCopy v1.3"PERFORMER "DJ Lena Popova"TITLE "United Colours"REM COMPOSER ""FILE "DJ Lena Popova - United Colours.flac" WAVE  TRACK 01 AUDIO    TITLE "United Colours"    PERFORMER "DJ Lena Popova"    REM COMPOSER ""    INDEX 01 00:00:00  TRACK 02 AUDIO    TITLE "United Colours"    PERFORMER "DJ Lena Popova"    REM COMPOSER ""    INDEX 01 07:17:35  TRACK 03 AUDIO    TITLE "United Colours"    PERFORMER "DJ Lena Popova"    REM COMPOSER ""    INDEX 01 10:56:01  TRACK 04 AUDIO    TITLE "United Colours"    PERFORMER "DJ Lena Popova"    REM COMPOSER ""    INDEX 01 16:31:51  TRACK 05 AUDIO    TITLE "United Colours"    PERFORMER "DJ Lena Popova"    REM COMPOSER ""    INDEX 01 19:33:20  TRACK 06 AUDIO    TITLE "United Colours"    PERFORMER "DJ Lena Popova"    REM COMPOSER ""    INDEX 01 22:37:74  TRACK 07 AUDIO    TITLE "United Colours"    PERFORMER "DJ Lena Popova"    REM COMPOSER ""    INDEX 01 25:23:61  TRACK 08 AUDIO    TITLE "United Colours"    PERFORMER "DJ Lena Popova"    REM COMPOSER ""    INDEX 01 30:29:55  TRACK 09 AUDIO    TITLE "United Colours"    PERFORMER "DJ Lena Popova"    REM COMPOSER ""    INDEX 01 34:51:24  TRACK 10 AUDIO    TITLE "United Colours"    PERFORMER "DJ Lena Popova"    REM COMPOSER ""    INDEX 01 40:25:71  TRACK 11 AUDIO    TITLE "United Colours"    PERFORMER "DJ Lena Popova"    REM COMPOSER ""    INDEX 01 46:00:24  TRACK 12 AUDIO    TITLE "United Colours"    PERFORMER "DJ Lena Popova"    REM COMPOSER ""    INDEX 01 54:13:36  TRACK 13 AUDIO    TITLE "United Colours"    PERFORMER "DJ Lena Popova"    REM COMPOSER ""    INDEX 01 60:05:72  TRACK 14 AUDIO    TITLE "United Colours"    PERFORMER "DJ Lena Popova"    REM COMPOSER ""    INDEX 01 64:56:54  TRACK 15 AUDIO    TITLE "United Colours"    PERFORMER "DJ Lena Popova"    REM COMPOSER ""    INDEX 01 70:01:27
Вы не можете начинать темы
Вы не можете отвечать на сообщения
Вы не можете редактировать свои сообщения
Вы не можете удалять свои сообщения
Вы не можете голосовать в опросах
Вы не можете прикреплять файлы к сообщениям
Вы можете скачивать файлы
!ВНИМАНИЕ!

Сайт не предоставляет электронные версии произведений, а занимается лишь коллекционированием и каталогизацией ссылок, присылаемых и публикуемых на форуме нашими читателями. Если вы являетесь правообладателем какого-либо представленного материала и не желаете, чтобы ссылка на него находилась в нашем каталоге, свяжитесь с нами, и мы незамедлительно удалим ее. Файлы для обмена на трекере предоставлены пользователями сайта, и администрация не несет ответственности за их содержание. Просьба не заливать файлы, защищенные авторскими правами, а также файлы нелегального содержания!

Искали программы, игры, дополнения, музыка mp3, аниме, аудио книги, журналы? Добро пожаловать на свободный торрент трекер Torrents, у нас можно скачать бесплатно, без смс и регистрации и прочих ограничений лучшие, отборные сборки программ, игр. Скачать торрентом не составит труда даже не опытному пользователю. Раздачи ежедневно обновляются, только лучшие и качественные раздачи, подробные описания и скриншоты. Огромная коллекция программ для работы со звуком, графикой, дизайном, а так же множество плагинов и инструментов к ним с подробной инструкцией и рекомендациями. Прошивки для навигаторов, карты. Разнообразные игры, для Windows, Linux. В коллекцие есть и старые игры любых жанров, Rpg, Action, Shooter, strategy Множество дополнений, модификаций, сценариев для популярных игр в жанре экш, рпг, гонки, стратегии, логические игры. Множество аддонов и сценариев для Microsoft Flight Simulator Большая коллекция книг, учебников. Если нет возможности купить печатное издание - смело скачивайте цифровую версию книги или, быть может, журнала. Не любите читать - можно загрузить бесплатно аудикнигу. Для веб дизайнеров и программистов так же найдется множество специализированного софта, таких как: редакторы с подсветкой, среды программирования, компоненты, системы управления базами данных, разнообразные скрипты и шаблоны. Не так давно у нас появился материал для автолюбителей и владельцев мото - оригинальные и неоригинальные каталоги запчастей, книги и журналы по ремонту и обслуживанию, видеоуроки, статьи по чип тюнингу, прошивкам. Процедура получения контента элементарная, достаточно просто скачать торрент файл и добавить его в загрузку в вашем торрент клиенте. Если у вас нет специального торрент клиента, вы можете его скачать у нас.