Berlin Station (30) | Nhạc pop, rock... | Falling Down

(Breakbeat) (IDJ (International DJ Magazine)) [none] [CD] VA - IDJ Presents Premium Breaks - 2004, FLAC (tracks+.cue), lossless 

Цитировать
Various Artists - IDJ Presents Premium Breaks- Жанр: Breakbeat
Страна: UK
Издатель (лейбл): IDJ (International DJ Magazine)
Номер по каталогу: none
Год выпуска: 2004
Носитель: CD
Битрейт аудио: lossless
Тип рипа: tracks+.cue
Аудио кодек: FLAC (*.flac)
Продолжительность: 00:01:00:44
Источник (релизер): RED
-:: Discogs ::-
01. DJ Zinc - Flim (Original Mix) (feat. Slarta John) (3:16)02. The Apollo Kids - King Of The Beats (5:55)03. Lee Coombs featuring Dylan Rhymes - Alright All Night (7:17)04. Acen - Dirty Raver (6:22)05. Pod & Bowser - The Anti (7:44)06. S.C.A.M. - Killer (6:13)07. Backdraft - Labrat (4:13)08. Splitloop - Electric Fence (6:14)09. Jason Sparks - Don't I Feel (Soto Remix) (feat. Pauline Taylor) (6:40)10. Kraymon - Time Wasting (6:50)
-

*.log

X Lossless Decoder version 20170729 (150.3)
XLD extraction logfile from 2018-03-26 15:05:46 +0100
Various Artists / IDJ Presents Premium Breaks
Used drive : MATSHITA DVD-R UJ-898 (revision HC10)Media type : Pressed CD
Ripper mode : XLD Secure RipperDisable audio cache : OK for the drive with a cache less than 1375KiBMake use of C2 pointers : NORead offset correction : 102Max retry count : 20Gap status : Analyzed, Appended (except HTOA)
TOC of the extracted CD Track | Start | Length | Start sector | End sector --------------------------------------------------------- 1 | 00:00:00 | 03:15:60 | 0 | 14684 2 | 03:15:60 | 05:55:30 | 14685 | 41339 3 | 09:11:15 | 07:17:19 | 41340 | 74133 4 | 16:28:34 | 06:22:05 | 74134 | 102788 5 | 22:50:39 | 07:44:02 | 102789 | 137590 6 | 30:34:41 | 06:12:51 | 137591 | 165541 7 | 36:47:17 | 04:13:06 | 165542 | 184522 8 | 41:00:23 | 06:13:73 | 184523 | 212570 9 | 47:14:21 | 06:39:65 | 212571 | 242560 10 | 53:54:11 | 06:49:51 | 242561 | 273286
AccurateRip Summary (DiscID: 00161c3f-00b395d6-8d0e3b0a) Track 01 : OK (v2, confidence 2/2) Track 02 : OK (v2, confidence 2/2) Track 03 : OK (v2, confidence 2/2) Track 04 : OK (v2, confidence 2/2) Track 05 : OK (v2, confidence 2/2) Track 06 : OK (v2, confidence 2/2) Track 07 : OK (v2, confidence 2/2) Track 08 : OK (v2, confidence 2/2) Track 09 : OK (v2, confidence 1/1) Track 10 : OK (v2, confidence 1/1) ->All tracks accurately ripped.
All Tracks Album gain : -6.28 dB Peak : 1.000000 Statistics Read error : 0 Jitter error (maybe fixed) : 0 Retry sector count : 0 Damaged sector count : 0
Track 01 Filename : /Users/Carl/Music/Transcodes/Various Artists - IDJ Presents Premium Breaks (2004) [FLAC]/01 - Zinc Feat. Slarta John - Flim (Original Mix).flac Pre-gap length : 00:02:00
Track gain : -8.41 dB Peak : 0.839844 CRC32 hash (test run) : DE90577F CRC32 hash : DE90577F CRC32 hash (skip zero) : A11DCADA AccurateRip v1 signature : 81AFFC4C AccurateRip v2 signature : F244A91D ->Accurately ripped (v2, confidence 2/2) Statistics Read error : 0 Jitter error (maybe fixed) : 0 Retry sector count : 0 Damaged sector count : 0
Track 02 Filename : /Users/Carl/Music/Transcodes/Various Artists - IDJ Presents Premium Breaks (2004) [FLAC]/02 - The Apollo Kids - King Of The Beats.flac
Track gain : -2.68 dB Peak : 0.999969 CRC32 hash (test run) : 3994CA34 CRC32 hash : 3994CA34 CRC32 hash (skip zero) : 48A946E6 AccurateRip v1 signature : 6C742D90 AccurateRip v2 signature : 16AC203A ->Accurately ripped (v2, confidence 2/2) Statistics Read error : 0 Jitter error (maybe fixed) : 0 Retry sector count : 0 Damaged sector count : 0
Track 03 Filename : /Users/Carl/Music/Transcodes/Various Artists - IDJ Presents Premium Breaks (2004) [FLAC]/03 - Lee Combs & Dylan Rhymes - Alright All Night.flac
Track gain : -6.47 dB Peak : 0.988556 CRC32 hash (test run) : CB7A2F79 CRC32 hash : CB7A2F79 CRC32 hash (skip zero) : 0AB55FB3 AccurateRip v1 signature : AFA92538 AccurateRip v2 signature : 59482445 ->Accurately ripped (v2, confidence 2/2) Statistics Read error : 0 Jitter error (maybe fixed) : 0 Retry sector count : 0 Damaged sector count : 0
Track 04 Filename : /Users/Carl/Music/Transcodes/Various Artists - IDJ Presents Premium Breaks (2004) [FLAC]/04 - Acen - Dirty Raver.flac
Track gain : -4.72 dB Peak : 0.988556 CRC32 hash (test run) : 5AA3F655 CRC32 hash : 5AA3F655 CRC32 hash (skip zero) : D4BC467D AccurateRip v1 signature : 3F4B0980 AccurateRip v2 signature : FBAB8E05 ->Accurately ripped (v2, confidence 2/2) Statistics Read error : 0 Jitter error (maybe fixed) : 0 Retry sector count : 0 Damaged sector count : 0
Track 05 Filename : /Users/Carl/Music/Transcodes/Various Artists - IDJ Presents Premium Breaks (2004) [FLAC]/05 - Pod & Bowser - The Anti.flac
Track gain : -7.31 dB Peak : 0.988556 CRC32 hash (test run) : 19EEDE49 CRC32 hash : 19EEDE49 CRC32 hash (skip zero) : 3422316E AccurateRip v1 signature : 90827272 AccurateRip v2 signature : 61970ED6 ->Accurately ripped (v2, confidence 2/2) Statistics Read error : 0 Jitter error (maybe fixed) : 0 Retry sector count : 0 Damaged sector count : 0
Track 06 Filename : /Users/Carl/Music/Transcodes/Various Artists - IDJ Presents Premium Breaks (2004) [FLAC]/06 - S.C.A.M - Killer.flac
Track gain : -5.13 dB Peak : 1.000000 CRC32 hash (test run) : 6C72800F CRC32 hash : 6C72800F CRC32 hash (skip zero) : 6608664E AccurateRip v1 signature : 24CEF8A5 AccurateRip v2 signature : 1A6FCB9E ->Accurately ripped (v2, confidence 2/2) Statistics Read error : 0 Jitter error (maybe fixed) : 0 Retry sector count : 0 Damaged sector count : 0
Track 07 Filename : /Users/Carl/Music/Transcodes/Various Artists - IDJ Presents Premium Breaks (2004) [FLAC]/07 - Backdraft - Labrat.flac
Track gain : -7.29 dB Peak : 1.000000 CRC32 hash (test run) : 70C93F68 CRC32 hash : 70C93F68 CRC32 hash (skip zero) : 92B2DBFB AccurateRip v1 signature : 41F11C0F AccurateRip v2 signature : F40F4053 ->Accurately ripped (v2, confidence 2/2) Statistics Read error : 0 Jitter error (maybe fixed) : 0 Retry sector count : 0 Damaged sector count : 0
Track 08 Filename : /Users/Carl/Music/Transcodes/Various Artists - IDJ Presents Premium Breaks (2004) [FLAC]/08 - Splitloop - Electric Fence.flac
Track gain : -2.76 dB Peak : 0.999969 CRC32 hash (test run) : 816487EE CRC32 hash : 816487EE CRC32 hash (skip zero) : CFD3D258 AccurateRip v1 signature : A84B09A7 AccurateRip v2 signature : 4B55BBEC ->Accurately ripped (v2, confidence 2/2) Statistics Read error : 0 Jitter error (maybe fixed) : 0 Retry sector count : 0 Damaged sector count : 0
Track 09 Filename : /Users/Carl/Music/Transcodes/Various Artists - IDJ Presents Premium Breaks (2004) [FLAC]/09 - Jason Sparks Feat. Pauline Taylor - Don't I Feel (Soto Remix).flac
Track gain : -7.32 dB Peak : 1.000000 CRC32 hash (test run) : 6597329A CRC32 hash : 6597329A CRC32 hash (skip zero) : E913AD90 AccurateRip v1 signature : 46368B55 AccurateRip v2 signature : EDEDDD2B ->Accurately ripped (v2, confidence 1/1) Statistics Read error : 0 Jitter error (maybe fixed) : 0 Retry sector count : 0 Damaged sector count : 0
Track 10 Filename : /Users/Carl/Music/Transcodes/Various Artists - IDJ Presents Premium Breaks (2004) [FLAC]/10 - Kraymon - Time Wasting.flac
Track gain : -2.50 dB Peak : 1.000000 CRC32 hash (test run) : 33806347 CRC32 hash : 33806347 CRC32 hash (skip zero) : 10A3E147 AccurateRip v1 signature : 7E571494 AccurateRip v2 signature : 74B7D4D7 ->Accurately ripped (v2, confidence 1/1) Statistics Read error : 0 Jitter error (maybe fixed) : 0 Retry sector count : 0 Damaged sector count : 0
No errors occurred
End of status report
-----BEGIN XLD SIGNATURE-----XNnvXiphvxtjj073d.gDPHso02MskXyPl.hKmCUA20ZOOXKWRD45X.5fTjxeeC52CSg0WBrKAKeS9Y_AIlUssSmlQndoQgFrQIFuig0-----END XLD SIGNATURE-----

*.cue

REM GENRE BreakbeatREM DATE 2004REM DISCID 8D0E3B0APERFORMER "Various Artists"TITLE "Premium Breaks"FILE "01. DJ Zinc - Flim (Original Mix) (feat. Slarta John).wav" WAVE  TRACK 01 AUDIO    TITLE "Flim (Original Mix) (feat. Slarta John)"    PERFORMER "DJ Zinc"    INDEX 01 00:00:00FILE "02. The Apollo Kids - King Of The Beats.wav" WAVE  TRACK 02 AUDIO    TITLE "King Of The Beats"    PERFORMER "The Apollo Kids"    INDEX 01 00:00:00FILE "03. Lee Coombs featuring Dylan Rhymes - Alright All Night.wav" WAVE  TRACK 03 AUDIO    TITLE "Alright All Night"    PERFORMER "Lee Coombs featuring Dylan Rhymes"    INDEX 01 00:00:00FILE "04. Acen - Dirty Raver.wav" WAVE  TRACK 04 AUDIO    TITLE "Dirty Raver"    PERFORMER "Acen"    INDEX 01 00:00:00FILE "05. Pod & Bowser - The Anti.wav" WAVE  TRACK 05 AUDIO    TITLE "The Anti"    PERFORMER "Pod & Bowser"    INDEX 01 00:00:00FILE "06. S.C.A.M. - Killer.wav" WAVE  TRACK 06 AUDIO    TITLE "Killer"    PERFORMER "S.C.A.M."    INDEX 01 00:00:00FILE "07. Backdraft - Labrat.wav" WAVE  TRACK 07 AUDIO    TITLE "Labrat"    PERFORMER "Backdraft"    INDEX 01 00:00:00FILE "08. Splitloop - Electric Fence.wav" WAVE  TRACK 08 AUDIO    TITLE "Electric Fence"    PERFORMER "Splitloop"    INDEX 01 00:00:00FILE "09. Jason Sparks - Don't I Feel (Soto Remix) (feat. Pauline Taylor).wav" WAVE  TRACK 09 AUDIO    TITLE "Don't I Feel (Soto Remix) (feat. Pauline Taylor)"    PERFORMER "Jason Sparks"    INDEX 01 00:00:00FILE "10. Kraymon - Time Wasting.wav" WAVE  TRACK 10 AUDIO    TITLE "Time Wasting"    PERFORMER "Kraymon"    INDEX 01 00:00:00

*.auCDtect

-----------------------
DON'T MODIFY THIS FILE
-----------------------
PERFORMER: auCDtect Task Manager, ver. 1.6.0 RC1 build 1.6.0.1Copyright (c) 2008-2010 y-soft. All rights reservedhttp://y-soft.org
ANALYZER: auCDtect: CD records authenticity detector, version 0.8.2Copyright (c) 2004 Oleg Berngardt. All rights reserved.Copyright (c) 2004 Alexander Djourik. All rights reserved.
FILE: 01. DJ Zinc - Flim (Original Mix) (feat. Slarta John).flac Size: 23032675 Hash: 55C86FE8A5429522FEED052D2BE3C343 Accuracy: -m0 Conclusion: CDDA 99% Signature: A81D5A3EA46CA90F6C23C9FD7D1C0A501939AC81FILE: 02. The Apollo Kids - King Of The Beats.flac Size: 37380019 Hash: F2181ADBD5137F71537F4D7D90BF4467 Accuracy: -m0 Conclusion: CDDA 100% Signature: 9FCB7661ACE94BD546B95F9C88BE9C06FD779CA2FILE: 03. Lee Coombs featuring Dylan Rhymes - Alright All Night.flac Size: 53467318 Hash: 048AAA8DF06FD48877E0C5C89DB609E0 Accuracy: -m0 Conclusion: CDDA 100% Signature: 242BFCDE0890DA4E21D21CD58CC0D58ED0AB79F2FILE: 04. Acen - Dirty Raver.flac Size: 33367491 Hash: 807FEED1440956E5F0CBABA0398CC406 Accuracy: -m0 Conclusion: CDDA 100% Signature: ED9450CD31C2CDE3F645EAB936B377C2BAC6F8FEFILE: 05. Pod & Bowser - The Anti.flac Size: 50642041 Hash: 056C3EFF2E497E5456819C26B2D7C4F6 Accuracy: -m0 Conclusion: CDDA 100% Signature: 952A48754E71B058E44D99EBA05815B56DDE2382FILE: 06. S.C.A.M. - Killer.flac Size: 44061933 Hash: 84DA55471883DBF0FF54A7979D5691B1 Accuracy: -m0 Conclusion: MPEG 95% Signature: CA396EF56E634FB0C20622FA6093C2B4EC25A0D7FILE: 07. Backdraft - Labrat.flac Size: 27828941 Hash: 6C1A31C8D736AFCD579BAD9B4BE897A5 Accuracy: -m0 Conclusion: MPEG 95% Signature: 2D8CFBEA8C5D6763C28E2C00A2CC17F44B9C421CFILE: 08. Splitloop - Electric Fence.flac Size: 39507470 Hash: EB111ABD0646EC06CFFF4CA8EEC859BE Accuracy: -m0 Conclusion: CDDA 100% Signature: DFC818343CAE80EA3993E8916DA7D3513D95860AFILE: 09. Jason Sparks - Don't I Feel (Soto Remix) (feat. Pauline Taylor).flac Size: 46235572 Hash: BAC97071A9DB85A44CD101EF3ED5E891 Accuracy: -m0 Conclusion: CDDA 100% Signature: A5691DBDCF2C414179123DF9659D16BEF94045BEFILE: 10. Kraymon - Time Wasting.flac Size: 41567981 Hash: 3D60477FC047CEAA7621B258FD00EA6B Accuracy: -m0 Conclusion: CDDA 100% Signature: 393B3776F494414A89668D4E1275FC393EF335CC

*.accurip

[CUETools log; Date: 30.03.2018 10:53:24; Version: 2.1.6][CTDB TOCID: .lz_eYh4OtC.rWpqpnpQT3B2V1U-] found.Track | CTDB Status  1   | (2/2) Accurately ripped  2   | (2/2) Accurately ripped  3   | (2/2) Accurately ripped  4   | (2/2) Accurately ripped  5   | (2/2) Accurately ripped  6   | (2/2) Accurately ripped  7   | (2/2) Accurately ripped  8   | (2/2) Accurately ripped  9   | (2/2) Accurately ripped 10   | (2/2) Accurately ripped[AccurateRip ID: 00161c3f-00b395d6-8d0e3b0a] found.Track   [  CRC   |   V2   ] Status 01     [81affc4c|f244a91d] (0+2/2) Accurately ripped 02     [6c742d90|16ac203a] (0+2/2) Accurately ripped 03     [afa92538|59482445] (0+2/2) Accurately ripped 04     [3f4b0980|fbab8e05] (0+2/2) Accurately ripped 05     [90827272|61970ed6] (0+2/2) Accurately ripped 06     [24cef8a5|1a6fcb9e] (0+2/2) Accurately ripped 07     [41f11c0f|f40f4053] (0+2/2) Accurately ripped 08     [a84b09a7|4b55bbec] (0+2/2) Accurately ripped 09     [46368b55|ededdd2b] (0+1/1) Accurately ripped 10     [7e571494|74b7d4d7] (0+1/1) Accurately ripped
Track Peak [ CRC32 ] [W/O NULL] -- 100,0 [7A9D1157] [F7FF5A4D] 01 83,9 [DE90577F] [A11DCADA] 02 99,9 [3994CA34] [48A946E6] 03 98,8 [CB7A2F79] [0AB55FB3] 04 98,8 [5AA3F655] [D4BC467D] 05 98,8 [19EEDE49] [3422316E] 06 100,0 [6C72800F] [6608664E] 07 100,0 [70C93F68] [92B2DBFB] 08 100,0 [816487EE] [CFD3D258] 09 100,0 [6597329A] [E913AD90] 10 100,0 [33806347] [10A3E147]
Вы не можете начинать темы
Вы не можете отвечать на сообщения
Вы не можете редактировать свои сообщения
Вы не можете удалять свои сообщения
Вы не можете голосовать в опросах
Вы не можете прикреплять файлы к сообщениям
Вы можете скачивать файлы
!ВНИМАНИЕ!

Сайт не предоставляет электронные версии произведений, а занимается лишь коллекционированием и каталогизацией ссылок, присылаемых и публикуемых на форуме нашими читателями. Если вы являетесь правообладателем какого-либо представленного материала и не желаете, чтобы ссылка на него находилась в нашем каталоге, свяжитесь с нами, и мы незамедлительно удалим ее. Файлы для обмена на трекере предоставлены пользователями сайта, и администрация не несет ответственности за их содержание. Просьба не заливать файлы, защищенные авторскими правами, а также файлы нелегального содержания!

Искали программы, игры, дополнения, музыка mp3, аниме, аудио книги, журналы? Добро пожаловать на свободный торрент трекер Torrents, у нас можно скачать бесплатно, без смс и регистрации и прочих ограничений лучшие, отборные сборки программ, игр. Скачать торрентом не составит труда даже не опытному пользователю. Раздачи ежедневно обновляются, только лучшие и качественные раздачи, подробные описания и скриншоты. Огромная коллекция программ для работы со звуком, графикой, дизайном, а так же множество плагинов и инструментов к ним с подробной инструкцией и рекомендациями. Прошивки для навигаторов, карты. Разнообразные игры, для Windows, Linux. В коллекцие есть и старые игры любых жанров, Rpg, Action, Shooter, strategy Множество дополнений, модификаций, сценариев для популярных игр в жанре экш, рпг, гонки, стратегии, логические игры. Множество аддонов и сценариев для Microsoft Flight Simulator Большая коллекция книг, учебников. Если нет возможности купить печатное издание - смело скачивайте цифровую версию книги или, быть может, журнала. Не любите читать - можно загрузить бесплатно аудикнигу. Для веб дизайнеров и программистов так же найдется множество специализированного софта, таких как: редакторы с подсветкой, среды программирования, компоненты, системы управления базами данных, разнообразные скрипты и шаблоны. Не так давно у нас появился материал для автолюбителей и владельцев мото - оригинальные и неоригинальные каталоги запчастей, книги и журналы по ремонту и обслуживанию, видеоуроки, статьи по чип тюнингу, прошивкам. Процедура получения контента элементарная, достаточно просто скачать торрент файл и добавить его в загрузку в вашем торрент клиенте. Если у вас нет специального торрент клиента, вы можете его скачать у нас.