Logowanie | Rejestracja | Nie pamiętam hasła

(Breakbeat, Trip Hop) [CD] Coldcut - Sampler - 1999, FLAC (image+.cue), lossless 

Цитировать
Coldcut / Sampler
Жанр: Breakbeat, Trip Hop
Носитель: CD
Страна-производитель диска (релиза): UK
Год издания: 1999
Издатель (лейбл): Ninja Tune
Номер по каталогу: ZEN39CDPROMO
Страна исполнителя (группы): UK
Аудиокодек: FLAC (*.flac)
Тип рипа: image+.cue
Битрейт аудио: lossless
Продолжительность: 0:35:54
Источник (релизер): Собственный рип
Наличие сканов в содержимом раздачи: нет
Треклист:
01. Atomic Moog 2000 (Radio Edit)
02. Autumn Leaves
03. Timber (DK Re-Cut)
04. Cloned Again (Yukuhiro Takahashi Remix)
05. Beats & Pieces (Original Version)
06. Autumn Leaves (Irresistible Force Full Chill)

Лог создания рипа

Exact Audio Copy V1.0 beta 3 from 29. August 2011
Отчёт EAC об извлечении, выполненном 24. марта 2018, 23:44
Coldcut / Sampler
Дисковод: Optiarc DVD RW AD-7200S Adapter: 3 ID: 0
Режим чтения : ДостоверностьИспользование точного потока : ДаОтключение кэша аудио : ДаИспользование указателей C2 : Нет
Коррекция смещения при чтении : 48Способность читать области Lead-in и Lead-out : НетЗаполнение пропущенных сэмплов тишиной : ДаУдаление блоков с тишиной в начале и конце : НетПри вычислениях CRC использовались нулевые сэмплы : ДаИнтерфейс : Установленный внешний ASPI-интерфейс
Выходной формат : Пользовательский кодировщикВыбранный битрейт : 1024 kBit/sКачество : ВысокийДобавление ID3-тега : НетУтилита сжатия : C:\Program Files\Exact Audio Copy\FLAC\FLAC.EXEДополнительные параметры : -V -8 -T "Date=%year%" -T "Genre=%genre%" %source%
TOC извлечённого CD
Трек | Старт | Длительность | Начальный сектор | Конечный сектор --------------------------------------------------------------------- 1 | 0:00.00 | 3:46.42 | 0 | 16991 2 | 3:46.42 | 5:50.36 | 16992 | 43277 3 | 9:37.03 | 6:07.32 | 43278 | 70834 4 | 15:44.35 | 4:11.70 | 70835 | 89729 5 | 19:56.30 | 6:01.34 | 89730 | 116838 6 | 25:57.64 | 9:55.57 | 116839 | 161520
Характеристики диапазона извлечения и сообщения об ошибках
Выбранный диапазон
Имя файла C:\Users\ASUS\Music\Аудио\Coldcut - Sampler.wav
Пиковый уровень 99.4 % Скорость извлечения 3.7 X Качество диапазона 100.0 % CRC теста 93D72998 CRC копии 93D72998 Копирование... OK
Ошибок не произошло
AccurateRip: сводка
Трек 1 точное извлечение (доверие 3) [761C3B5A]Трек 2 точное извлечение (доверие 3) [9F6FBEEF]Трек 3 точное извлечение (доверие 3) [CE15654B]Трек 4 точное извлечение (доверие 3) [F52CDDB9]Трек 5 точное извлечение (доверие 3) [BBB567D4]Трек 6 точное извлечение (доверие 3) [A2E287E3]
Все треки извлечены точно
==== Контрольная сумма отчёта 7B5DCAAA3CF53776687ADE25C9E318AB68BC6BBB044C98CA1D2B3E5968C42A59 ====

Содержание индексной карты (.CUE)

REM GENRE Trip-HopREM DATE 1999REM DISCID 5D086906REM COMMENT "ExactAudioCopy v1.0b3"PERFORMER "Coldcut"TITLE "Sampler"FILE "Coldcut - Sampler.flac" WAVE  TRACK 01 AUDIO    TITLE "Atomic Moog 2000 (Radio Edit)"    PERFORMER "Coldcut"    INDEX 01 00:00:00  TRACK 02 AUDIO    TITLE "Autumn Leaves"    PERFORMER "Coldcut"    INDEX 01 03:46:42  TRACK 03 AUDIO    TITLE "Timber (DK Re-Cut)"    PERFORMER "Coldcut"    INDEX 01 09:37:03  TRACK 04 AUDIO    TITLE "Cloned Again (Takahashi Yukuhiro Remix)"    PERFORMER "Coldcut"    INDEX 01 15:44:35  TRACK 05 AUDIO    TITLE "Beats & Pieces (Original Version)"    PERFORMER "Coldcut"    INDEX 01 19:56:30  TRACK 06 AUDIO    TITLE "Autumn Leaves (Irresistible Force Full Chill)"    PERFORMER "Coldcut"    INDEX 01 25:57:64
Вы не можете начинать темы
Вы не можете отвечать на сообщения
Вы не можете редактировать свои сообщения
Вы не можете удалять свои сообщения
Вы не можете голосовать в опросах
Вы не можете прикреплять файлы к сообщениям
Вы можете скачивать файлы
!ВНИМАНИЕ!

Сайт не предоставляет электронные версии произведений, а занимается лишь коллекционированием и каталогизацией ссылок, присылаемых и публикуемых на форуме нашими читателями. Если вы являетесь правообладателем какого-либо представленного материала и не желаете, чтобы ссылка на него находилась в нашем каталоге, свяжитесь с нами, и мы незамедлительно удалим ее. Файлы для обмена на трекере предоставлены пользователями сайта, и администрация не несет ответственности за их содержание. Просьба не заливать файлы, защищенные авторскими правами, а также файлы нелегального содержания!

Искали программы, игры, дополнения, музыка mp3, аниме, аудио книги, журналы? Добро пожаловать на свободный торрент трекер Torrents, у нас можно скачать бесплатно, без смс и регистрации и прочих ограничений лучшие, отборные сборки программ, игр. Скачать торрентом не составит труда даже не опытному пользователю. Раздачи ежедневно обновляются, только лучшие и качественные раздачи, подробные описания и скриншоты. Огромная коллекция программ для работы со звуком, графикой, дизайном, а так же множество плагинов и инструментов к ним с подробной инструкцией и рекомендациями. Прошивки для навигаторов, карты. Разнообразные игры, для Windows, Linux. В коллекцие есть и старые игры любых жанров, Rpg, Action, Shooter, strategy Множество дополнений, модификаций, сценариев для популярных игр в жанре экш, рпг, гонки, стратегии, логические игры. Множество аддонов и сценариев для Microsoft Flight Simulator Большая коллекция книг, учебников. Если нет возможности купить печатное издание - смело скачивайте цифровую версию книги или, быть может, журнала. Не любите читать - можно загрузить бесплатно аудикнигу. Для веб дизайнеров и программистов так же найдется множество специализированного софта, таких как: редакторы с подсветкой, среды программирования, компоненты, системы управления базами данных, разнообразные скрипты и шаблоны. Не так давно у нас появился материал для автолюбителей и владельцев мото - оригинальные и неоригинальные каталоги запчастей, книги и журналы по ремонту и обслуживанию, видеоуроки, статьи по чип тюнингу, прошивкам. Процедура получения контента элементарная, достаточно просто скачать торрент файл и добавить его в загрузку в вашем торрент клиенте. Если у вас нет специального торрент клиента, вы можете его скачать у нас.