vidbom VF BDRIP | Ishida to Asakura English Subbed | Francisca Castillo

(Breakbeat, Tech House, Ambient) (10 Kilo) [10KGCD03] [CD] VA - 10 Kilo Calling - 2002, FLAC (tracks+.cue), lossless 

Цитировать
Various Artists - 10 Kilo Calling- Жанр: Breakbeat, Tech House, Ambient
Страна: UK
Издатель (лейбл): 10 Kilo
Номер по каталогу: 10KGCD03
Год выпуска: 2002
Носитель: CD
Битрейт аудио: lossless
Тип рипа: tracks+.cue
Аудио кодек: FLAC (*.flac)
Продолжительность: 00:01:10:04
Источник (релизер): RED
-:: Discogs ::-
01. Red Star - The Pretender (Vocal Mix) (6:27)02. PFN - Future Burn (6:53)03. Nathan Coles - Raas Bucket (7:19)04. DJ Hal - Close To The Edge (6:10)05. Rennie Pilgrem & Meat Katie - Moist (7:18)06. Sneaker Pimps - Bloodsport (Dylan Rhymes Remix) (6:22)07. Rennie Pilgrem & B.L.I.M. - Monkfish (8:26)08. Elite Force - Haiku (8:48)09. Broadway Danny Rose - Night Of The Elastic (4:02)10. Subsonic Legacy vs. Dreadzone - Phantom (8:20)
-

*.log

Exact Audio Copy V1.3 from 2. September 2016
EAC extraction logfile from 29. March 2018, 15:37
Various / 10 KILO CALLING
Used drive : HL-DT-STDVDRAM GH24NSB0 Adapter: 1 ID: 0
Read mode : SecureUtilize accurate stream : YesDefeat audio cache : YesMake use of C2 pointers : No
Read offset correction : 6Overread into Lead-In and Lead-Out : NoFill up missing offset samples with silence : YesDelete leading and trailing silent blocks : NoNull samples used in CRC calculations : YesUsed interface : Native Win32 interface for Win NT & 2000Gap handling : Appended to previous track
Used output format : User Defined EncoderSelected bitrate : 1024 kBit/sQuality : HighAdd ID3 tag : NoCommand line compressor : C:\Program Files (x86)\Exact Audio Copy\FLAC\flac.exeAdditional command line options : -8 -e -V -T "ARTIST=%artist%" -T "TITLE=%title%" -T "ALBUM=%albumtitle%" -T "DATE=%year%" -T "TRACKNUMBER=%tracknr%" -T "GENRE=%genre%" -T "PERFORMER=%albuminterpret%" -T "COMPOSER=%composer%" %haslyrics%--tag-from-file=LYRICS="%lyricsfile%"%haslyrics% -T "ALBUMARTIST=%albumartist%" -T "DISCNUMBER=%cdnumber%" -T "TOTALDISCS=%totalcds%" -T "TOTALTRACKS=%numtracks%" -T "COMMENT=%comment%" %source% -o %dest%
TOC of the extracted CD
Track | Start | Length | Start sector | End sector --------------------------------------------------------- 1 | 0:00.00 | 6:26.57 | 0 | 29006 2 | 6:26.57 | 6:52.38 | 29007 | 59944 3 | 13:19.20 | 7:18.52 | 59945 | 92846 4 | 20:37.72 | 6:10.28 | 92847 | 120624 5 | 26:48.25 | 7:17.52 | 120625 | 153451 6 | 34:06.02 | 6:22.08 | 153452 | 182109 7 | 40:28.10 | 8:25.55 | 182110 | 220039 8 | 48:53.65 | 8:48.25 | 220040 | 259664 9 | 57:42.15 | 4:02.27 | 259665 | 277841 10 | 61:44.42 | 8:19.58 | 277842 | 315324
Track 1
Filename E:\rips\10 KILO CALLING\01 - Pretender - Red Star.wav
Pre-gap length 0:00:02.00
Peak level 97.9 % Extraction speed 1.0 X Track quality 99.9 % Test CRC DC11EB10 Copy CRC DC11EB10 Track not present in AccurateRip database Copy OK
Track 2
Filename E:\rips\10 KILO CALLING\02 - Future Burn - PFN.wav
Pre-gap length 0:00:01.13
Peak level 97.9 % Extraction speed 1.3 X Track quality 100.0 % Test CRC 9A0B6035 Copy CRC 9A0B6035 Track not present in AccurateRip database Copy OK
Track 3
Filename E:\rips\10 KILO CALLING\03 - Raas Bucket - Nathan Coles.wav
Pre-gap length 0:00:01.06
Peak level 97.9 % Extraction speed 1.5 X Track quality 100.0 % Test CRC 9EBC1EEE Copy CRC 9EBC1EEE Track not present in AccurateRip database Copy OK
Track 4
Filename E:\rips\10 KILO CALLING\04 - Close To The Edge - DJ Hal.wav
Pre-gap length 0:00:01.49
Peak level 97.9 % Extraction speed 1.6 X Track quality 100.0 % Test CRC 821C2125 Copy CRC 821C2125 Track not present in AccurateRip database Copy OK
Track 5
Filename E:\rips\10 KILO CALLING\05 - Moist - Dylan Rhymes & Meat Katie.wav
Pre-gap length 0:00:00.86
Peak level 97.9 % Extraction speed 1.8 X Track quality 100.0 % Test CRC F1AC690F Copy CRC F1AC690F Track not present in AccurateRip database Copy OK
Track 6
Filename E:\rips\10 KILO CALLING\06 - Bloodsport (Dylan Rhymes Remix) - Sneaker Pimps.wav
Pre-gap length 0:00:00.42
Peak level 97.9 % Extraction speed 1.8 X Track quality 99.9 % Test CRC 7A2A4138 Copy CRC 7A2A4138 Track not present in AccurateRip database Copy OK
Track 7
Filename E:\rips\10 KILO CALLING\07 - Monkfish - Rennie Pilgrem & B.L.I.M..wav
Peak level 97.9 % Extraction speed 2.1 X Track quality 100.0 % Test CRC 4C924C48 Copy CRC 4C924C48 Track not present in AccurateRip database Copy OK
Track 8
Filename E:\rips\10 KILO CALLING\08 - Haiku - Elite Force.wav
Pre-gap length 0:00:00.60
Peak level 97.9 % Extraction speed 2.2 X Track quality 100.0 % Test CRC 2BCE456C Copy CRC 2BCE456C Track not present in AccurateRip database Copy OK
Track 9
Filename E:\rips\10 KILO CALLING\09 - Night Of The Elastic - Broadway Danny Rose.wav
Pre-gap length 0:00:00.57
Peak level 97.9 % Extraction speed 1.9 X Track quality 99.9 % Test CRC F4436F25 Copy CRC F4436F25 Track not present in AccurateRip database Copy OK
Track 10
Filename E:\rips\10 KILO CALLING\10 - Phantom - Subsonic Legacy vs. Dreadzone.wav
Pre-gap length 0:00:00.42
Peak level 97.9 % Extraction speed 2.4 X Track quality 100.0 % Test CRC 681C8654 Copy CRC 681C8654 Track not present in AccurateRip database Copy OK
None of the tracks are present in the AccurateRip database
No errors occurred
End of status report
---- CUETools DB Plugin V2.1.6
[CTDB TOCID: goxoxXwuTDmRXCCBF3p2e1.AezU-] foundSubmit result: goxoxXwuTDmRXCCBF3p2e1.AezU- has been confirmedTrack | CTDB Status 1 | (3/3) Accurately ripped 2 | (3/3) Accurately ripped 3 | (3/3) Accurately ripped 4 | (3/3) Accurately ripped 5 | (3/3) Accurately ripped 6 | (3/3) Accurately ripped 7 | (3/3) Accurately ripped 8 | (3/3) Accurately ripped 9 | (3/3) Accurately ripped 10 | (3/3) Accurately ripped
==== Log checksum 91C311BA9D5FD4709939015E50715ADE6DC77C75B9545C1FD1F0010FA38638A0 ====

*.cue

REM GENRE BreakbeatREM DATE 2001REM DISCID 80106C0AREM COMMENT "ExactAudioCopy v1.3"PERFORMER "Various Artists"TITLE "10 Kilo Calling"FILE "01. Red Star - The Pretender (Vocal Mix).wav" WAVE  TRACK 01 AUDIO    TITLE "The Pretender (Vocal Mix)"    PERFORMER "Red Star"    INDEX 01 00:00:00  TRACK 02 AUDIO    TITLE "Future Burn"    PERFORMER "PFN"    INDEX 00 06:25:47FILE "02. PFN - Future Burn.wav" WAVE    INDEX 01 00:00:00  TRACK 03 AUDIO    TITLE "Raas Bucket"    PERFORMER "Nathan Coles"    INDEX 00 06:51:33FILE "03. Nathan Coles - Raas Bucket.wav" WAVE    INDEX 01 00:00:00  TRACK 04 AUDIO    TITLE "Close To The Edge"    PERFORMER "DJ Hal"    INDEX 00 07:17:15FILE "04. DJ Hal - Close To The Edge.wav" WAVE    INDEX 01 00:00:00  TRACK 05 AUDIO    TITLE "Moist"    PERFORMER "Dylan Rhymes & Meat Katie"    INDEX 00 06:09:38FILE "05. Rennie Pilgrem & Meat Katie - Moist.wav" WAVE    INDEX 01 00:00:00  TRACK 06 AUDIO    TITLE "Bloodsport (Dylan Rhymes Remix)"    PERFORMER "Sneaker Pimps"    INDEX 00 07:17:20FILE "06. Sneaker Pimps - Bloodsport (Dylan Rhymes Remix).wav" WAVE    INDEX 01 00:00:00FILE "07. Rennie Pilgrem & B.L.I.M. - Monkfish.wav" WAVE  TRACK 07 AUDIO    TITLE "Monkfish"    PERFORMER "Rennie Pilgrem & B.L.I.M."    INDEX 01 00:00:00  TRACK 08 AUDIO    TITLE "Haiku"    PERFORMER "Elite Force"    INDEX 00 08:25:10FILE "08. Elite Force - Haiku.wav" WAVE    INDEX 01 00:00:00  TRACK 09 AUDIO    TITLE "Night Of The Elastic"    PERFORMER "Broadway Danny Rose"    INDEX 00 08:47:57FILE "09. Broadway Danny Rose - Night Of The Elastic.wav" WAVE    INDEX 01 00:00:00  TRACK 10 AUDIO    TITLE "Phantom"    PERFORMER "Subsonic Legacy vs. Dreadzone"    INDEX 00 04:01:70FILE "10. Subsonic Legacy vs. Dreadzone - Phantom.wav" WAVE    INDEX 01 00:00:00

*.auCDtect

-----------------------
DON'T MODIFY THIS FILE
-----------------------
PERFORMER: auCDtect Task Manager, ver. 1.6.0 RC1 build 1.6.0.1Copyright (c) 2008-2010 y-soft. All rights reservedhttp://y-soft.org
ANALYZER: auCDtect: CD records authenticity detector, version 0.8.2Copyright (c) 2004 Oleg Berngardt. All rights reserved.Copyright (c) 2004 Alexander Djourik. All rights reserved.
FILE: 01. Red Star - The Pretender (Vocal Mix).flac Size: 36957392 Hash: F6EC9F5021BE24F2693E4E851D63ABDB Accuracy: -m0 Conclusion: CDDA 100% Signature: E935663D748D46956062B3A792360DEA518E1178FILE: 02. PFN - Future Burn.flac Size: 44042440 Hash: EA01E75E5BC9F22BC2C6ACB9B83BE850 Accuracy: -m0 Conclusion: CDDA 100% Signature: B70C2560597CC82AF815CD141A46B6FDD2B48773FILE: 03. Nathan Coles - Raas Bucket.flac Size: 46086468 Hash: E454DE073537175CF2BF0BF6504D8DE4 Accuracy: -m0 Conclusion: CDDA 100% Signature: AFE14846D49C60B6A3029B214DDEF67700DE646FFILE: 04. DJ Hal - Close To The Edge.flac Size: 40987372 Hash: BF83DAAA98D165A066E2814214EF3561 Accuracy: -m0 Conclusion: CDDA 100% Signature: 41A57DE538A43EE741E35D40BD95F1B636AA6B5BFILE: 05. Rennie Pilgrem & Meat Katie - Moist.flac Size: 46830455 Hash: A6533324310656A78869944D32DCF869 Accuracy: -m0 Conclusion: CDDA 100% Signature: 5565945F7E814FB1E8759FB8416338035E2587C9FILE: 06. Sneaker Pimps - Bloodsport (Dylan Rhymes Remix).flac Size: 41234088 Hash: 69FCCC3C81DA036733BC4BC2BD7E5A7E Accuracy: -m0 Conclusion: CDDA 100% Signature: 2A635BC23DE31CA0D5DA014487376711F8C0DB17FILE: 07. Rennie Pilgrem & B.L.I.M. - Monkfish.flac Size: 60953931 Hash: D996EBF90998DEE9588DC11492564BB0 Accuracy: -m0 Conclusion: CDDA 99% Signature: A82A605CE0BA08897589EA0BB7A187FF4302AD14FILE: 08. Elite Force - Haiku.flac Size: 63266940 Hash: 576ABF5610ED48106205CA49026467CD Accuracy: -m0 Conclusion: CDDA 100% Signature: C1DC4D34B8D43E7291D45152D5A0A6FB907BB639FILE: 09. Broadway Danny Rose - Night Of The Elastic.flac Size: 32191166 Hash: FC3101BE582AB4BD5977979F10AD2286 Accuracy: -m0 Conclusion: CDDA 100% Signature: 9493C6A8A8E8C6C43EB174F9D0533C10314B2261FILE: 10. Subsonic Legacy vs. Dreadzone - Phantom.flac Size: 53985416 Hash: D63C97BD035B9E5CB884B4B0F4F2F5EE Accuracy: -m0 Conclusion: CDDA 100% Signature: 0D7D377C5F859B3D0D2FCA2C13C8E5EA12D7E6D9

*.accurip

[CUETools log; Date: 30.03.2018 11:13:31; Version: 2.1.6][CTDB TOCID: goxoxXwuTDmRXCCBF3p2e1.AezU-] found.Track | CTDB Status  1   | (4/4) Accurately ripped  2   | (4/4) Accurately ripped  3   | (4/4) Accurately ripped  4   | (4/4) Accurately ripped  5   | (4/4) Accurately ripped  6   | (4/4) Accurately ripped  7   | (4/4) Accurately ripped  8   | (4/4) Accurately ripped  9   | (4/4) Accurately ripped 10   | (4/4) Accurately ripped[AccurateRip ID: 001a1b0a-00d1d751-80106c0a] disk not present in database.
Track Peak [ CRC32 ] [W/O NULL] [ LOG ] -- 97,9 [4CB6AF0E] [0F0508E6] 01 97,9 [DC11EB10] [7ADC8D7B] CRC32 02 97,9 [9A0B6035] [3EE51DDC] CRC32 03 97,9 [9EBC1EEE] [DA68060E] CRC32 04 97,9 [821C2125] [084AC7A7] CRC32 05 97,9 [F1AC690F] [B31B345B] CRC32 06 97,9 [7A2A4138] [92BD680E] CRC32 07 97,9 [4C924C48] [6F41290C] CRC32 08 97,9 [2BCE456C] [9DBD28C7] CRC32 09 97,9 [F4436F25] [C0EF222B] CRC32 10 97,9 [681C8654] [265771CC] CRC32
Вы не можете начинать темы
Вы не можете отвечать на сообщения
Вы не можете редактировать свои сообщения
Вы не можете удалять свои сообщения
Вы не можете голосовать в опросах
Вы не можете прикреплять файлы к сообщениям
Вы можете скачивать файлы
!ВНИМАНИЕ!

Сайт не предоставляет электронные версии произведений, а занимается лишь коллекционированием и каталогизацией ссылок, присылаемых и публикуемых на форуме нашими читателями. Если вы являетесь правообладателем какого-либо представленного материала и не желаете, чтобы ссылка на него находилась в нашем каталоге, свяжитесь с нами, и мы незамедлительно удалим ее. Файлы для обмена на трекере предоставлены пользователями сайта, и администрация не несет ответственности за их содержание. Просьба не заливать файлы, защищенные авторскими правами, а также файлы нелегального содержания!

Искали программы, игры, дополнения, музыка mp3, аниме, аудио книги, журналы? Добро пожаловать на свободный торрент трекер Torrents, у нас можно скачать бесплатно, без смс и регистрации и прочих ограничений лучшие, отборные сборки программ, игр. Скачать торрентом не составит труда даже не опытному пользователю. Раздачи ежедневно обновляются, только лучшие и качественные раздачи, подробные описания и скриншоты. Огромная коллекция программ для работы со звуком, графикой, дизайном, а так же множество плагинов и инструментов к ним с подробной инструкцией и рекомендациями. Прошивки для навигаторов, карты. Разнообразные игры, для Windows, Linux. В коллекцие есть и старые игры любых жанров, Rpg, Action, Shooter, strategy Множество дополнений, модификаций, сценариев для популярных игр в жанре экш, рпг, гонки, стратегии, логические игры. Множество аддонов и сценариев для Microsoft Flight Simulator Большая коллекция книг, учебников. Если нет возможности купить печатное издание - смело скачивайте цифровую версию книги или, быть может, журнала. Не любите читать - можно загрузить бесплатно аудикнигу. Для веб дизайнеров и программистов так же найдется множество специализированного софта, таких как: редакторы с подсветкой, среды программирования, компоненты, системы управления базами данных, разнообразные скрипты и шаблоны. Не так давно у нас появился материал для автолюбителей и владельцев мото - оригинальные и неоригинальные каталоги запчастей, книги и журналы по ремонту и обслуживанию, видеоуроки, статьи по чип тюнингу, прошивкам. Процедура получения контента элементарная, достаточно просто скачать торрент файл и добавить его в загрузку в вашем торрент клиенте. Если у вас нет специального торрент клиента, вы можете его скачать у нас.