Big Brother US S18E08 720p HDTV x264-BAJSKORV[rartv] | Hunter x Hunter OVA Episode 7 English Subbed | Descargar

(Breakbeat, Hardcore, Techno) [CD] VA - Hardcore (Leaders Of The New School) - 1992, FLAC (tracks), lossless 

Цитировать
VA - Hardcore (Leaders Of The New School)

Жанр: Breakbeat, Hardcore, Techno
Носитель: CD
Страна-производитель диска (релиза): United Kingdom
Год издания: 1992
Издатель (лейбл): Kickin Records
Номер по каталогу: KICK CD 3
Аудиокодек: FLAC (*.flac)
Тип рипа: tracks
Битрейт аудио: lossless
Продолжительность: 01:15:42
Источник (релизер): lossless-music
Лог создания рипа: отсутствует
Наличие сканов: нет
Треклист:
01 Acen - Trip to the Moon (part 1) 6:17
02 DJ Phantasy - Switch to 33 4:53
03 DJ Phantasy - Hippodrome 5:21
04 DJ Royal and DJ XL - Turntable Overload 5:54
05 Kev Bird & The Wax Doctor - Tough But Nice 4:54
06 Noise Factory - Set me Free 5:50
07 Sons of a Loop Da Loop Era - Let Your Mind be Free 4:51
08 Hedgehog Affair Part II - Second Rush 5:35
09 Sub Love - One by One 6:04
10 Noise Factory - My Mind 5:00
11 Soundcorp - Dream Finder 6:47
12 The Criminal Minds - Presence 5:27
13 Messiah - Asylum 4:24
14 Messiah (Program 2 Mix) - 20,000 Hardcore Members 4:25

Лог проверки качества

AUDIOCHECKER v2.0 beta (build 457) - by Dester - opdester@freemail.hu~~~~~~~~~~~~~~~~~~~~~~~~~~~~~~~~~~-=== НЕ РЕДАКТИРУЙТЕ ЭТОТ ФАЙЛ! ===-
Путь: ...\VA_-_Hardcore_(Leaders_Of_The_New_School)-(KICK_CD_3)-CD-FLAC-1992
01 -=- 01. Acen - Trip to the Moon (part 1).flac -=- CDDA (100%)02 -=- 02. DJ Phantasy - Switch to 33.flac -=- CDDA (100%)03 -=- 03. DJ Phantasy - Hippodrome.flac -=- CDDA (100%)04 -=- 04. DJ Royal and DJ XL - Turntable Overload.flac -=- CDDA (100%)05 -=- 05. Kev Bird & The Wax Doctor - Tough But Nice.flac -=- CDDA (100%)06 -=- 06. Noise Factory - Set me Free.flac -=- CDDA (100%)07 -=- 07. Sons of a Loop Da Loop Era - Let Your Mind be Free.flac -=- CDDA (99%)08 -=- 08. Hedgehog Affair Part II - Second Rush.flac -=- CDDA (100%)09 -=- 09. Sub Love - One by One.flac -=- CDDA (100%)10 -=- 10. Noise Factory - My Mind.flac -=- CDDA (100%)11 -=- 11. Soundcorp - Dream Finder.flac -=- CDDA (42%)12 -=- 12. The Criminal Minds - Presence.flac -=- CDDA (100%)13 -=- 13. Messiah - Asylum.flac -=- CDDA (100%)14 -=- 14. Messiah (Program 2 Mix) - 20,000 Hardcore Members.flac -=- CDDA (99%)
Сводка 95,71% CDDA
190223508

Spectres

DRM

foobar2000 1.3.15 / Dynamic Range Meter 1.1.1log date: 2018-08-14 21:37:53
--------------------------------------------------------------------------------Analyzed: Acen / Hardcore Leaders of the New School (1) DJ Phantasy / Hardcore Leaders of the New School (2-3) DJ Royal and DJ XL / Hardcore Leaders of the New School (4) Hedgehog Affair Part II / Hardcore Leaders of the New School (5) Kev Bird & The Wax Doctor / Hardcore Leaders of the New School (6) Messiah (Program 2 Mix) / Hardcore Leaders of the New School (7) Messiah / Hardcore Leaders of the New School (8) Noise Factory / Hardcore Leaders of the New School (9-10) Sons of a Loop Da Loop Era / Hardcore Leaders of the New School (11) Soundcorp / Hardcore Leaders of the New School (12) Sub Love / Hardcore Leaders of the New School (13) The Criminal Minds / Hardcore Leaders of the New School (14)--------------------------------------------------------------------------------
DR Peak RMS Duration Track--------------------------------------------------------------------------------DR10 0.00 dB -13.04 dB 6:17 01-Trip to the Moon (part 1)DR12 -0.51 dB -15.67 dB 4:53 02-Switch to 33DR13 -1.00 dB -15.15 dB 5:21 03-HippodromeDR11 0.00 dB -12.58 dB 5:54 04-Turntable OverloadDR12 -1.14 dB -15.44 dB 5:35 08-Second RushDR7 -0.89 dB -9.56 dB 4:54 05-Tough But NiceDR12 0.00 dB -13.87 dB 4:25 14-20,000 Hardcore MembersDR11 0.00 dB -13.36 dB 4:24 13-AsylumDR11 0.00 dB -13.61 dB 5:50 06-Set me FreeDR7 -0.51 dB -10.12 dB 5:00 10-My MindDR11 -0.27 dB -13.30 dB 4:51 07-Let Your Mind be FreeDR12 -1.00 dB -15.03 dB 6:47 11-Dream FinderDR11 -0.50 dB -13.71 dB 6:04 09-One by OneDR12 0.00 dB -14.55 dB 5:27 12-Presence--------------------------------------------------------------------------------
Number of tracks: 14Official DR value: DR11
Samplerate: 44100 HzChannels: 2Bits per sample: 16Bitrate: 856 kbpsCodec: FLAC================================================================================
Вы не можете начинать темы
Вы не можете отвечать на сообщения
Вы не можете редактировать свои сообщения
Вы не можете удалять свои сообщения
Вы не можете голосовать в опросах
Вы не можете прикреплять файлы к сообщениям
Вы можете скачивать файлы
!ВНИМАНИЕ!

Сайт не предоставляет электронные версии произведений, а занимается лишь коллекционированием и каталогизацией ссылок, присылаемых и публикуемых на форуме нашими читателями. Если вы являетесь правообладателем какого-либо представленного материала и не желаете, чтобы ссылка на него находилась в нашем каталоге, свяжитесь с нами, и мы незамедлительно удалим ее. Файлы для обмена на трекере предоставлены пользователями сайта, и администрация не несет ответственности за их содержание. Просьба не заливать файлы, защищенные авторскими правами, а также файлы нелегального содержания!

Искали программы, игры, дополнения, музыка mp3, аниме, аудио книги, журналы? Добро пожаловать на свободный торрент трекер Torrents, у нас можно скачать бесплатно, без смс и регистрации и прочих ограничений лучшие, отборные сборки программ, игр. Скачать торрентом не составит труда даже не опытному пользователю. Раздачи ежедневно обновляются, только лучшие и качественные раздачи, подробные описания и скриншоты. Огромная коллекция программ для работы со звуком, графикой, дизайном, а так же множество плагинов и инструментов к ним с подробной инструкцией и рекомендациями. Прошивки для навигаторов, карты. Разнообразные игры, для Windows, Linux. В коллекцие есть и старые игры любых жанров, Rpg, Action, Shooter, strategy Множество дополнений, модификаций, сценариев для популярных игр в жанре экш, рпг, гонки, стратегии, логические игры. Множество аддонов и сценариев для Microsoft Flight Simulator Большая коллекция книг, учебников. Если нет возможности купить печатное издание - смело скачивайте цифровую версию книги или, быть может, журнала. Не любите читать - можно загрузить бесплатно аудикнигу. Для веб дизайнеров и программистов так же найдется множество специализированного софта, таких как: редакторы с подсветкой, среды программирования, компоненты, системы управления базами данных, разнообразные скрипты и шаблоны. Не так давно у нас появился материал для автолюбителей и владельцев мото - оригинальные и неоригинальные каталоги запчастей, книги и журналы по ремонту и обслуживанию, видеоуроки, статьи по чип тюнингу, прошивкам. Процедура получения контента элементарная, достаточно просто скачать торрент файл и добавить его в загрузку в вашем торрент клиенте. Если у вас нет специального торрент клиента, вы можете его скачать у нас.