Scarica APK | Survivor Returns 26th Sep 8:00pm On CBS NEW! | The Legend Of ...

Доктор Хаус / House M.D. / Сезон: 8 / Серии: 01-22 (22) (Дэвид Шор) [2011, США, медицина, комедия, драма, детектив, WEB-DL 720p] (Original / LostFilm / NewStudio / UATEAM / Sub) 

Цитировать
- Год выпуска: 2011
Страна: США (FOX)
Жанр: медицина, комедия, драма, детектив
Продолжительность: ~ 00:44:00
Перевод:
• Профессиональный многоголосый закадровый - LostFilm
• Профессиональный многоголосый закадровый - NewStudio
• Профессиональный многоголосый закадровый - UATEAM
Русские субтитры: есть
Английские субтитры: есть
Режиссёр: Деран Сарафян, Дэвид Платт, Фред Гербер и др.
В ролях: Хью Лори, Омар Эппс, Роберт Шон Леонард, Джесси Спенсер, Оливия Уайлд, Питер Джекобсон, Одетт Эннэйбл, Шарлин Йи и др.
Описание:«Every week a new mystery...every week a new baffling case that only one team can solve.»Сериал House, M.D. рассказывает о команде врачей, которые должны правильно поставить диагноз пациенту и спасти его. В принципе сериал представляет из себя вариацию схемы «врач как детектив», но в отличие от остальных сериалов, где врачи обследуют уже мертвого пациента, в House, M.D. больной находится еще в живых.
Возглавляет команду доктор Грегори Хаус, который ходит с тростью после того, как его мышечный инфаркт в правой ноге слишком поздно правильно диагностировали. Как врач Хаус просто гений, но сам не отличается проникновенностью в общении с больными и с удовольствием избегает их, если только есть возможность. Он сам всё время проводит в борьбе с собственной болью, а трость в его руке только подчеркивает его жесткую ядовитую манеру общения. Порой его поведение можно назвать почти бесчеловечным, и при этом он прекрасный врач, обладаюший нетипичным умом и безупречным инстинктом, что снискало ему глубокое уважение. Будучи инфекционистом, он ещё и замечательный диагност, который любит разгадывать медицинские загадки, чтобы спасти кому-то жизнь. Если бы все было по его воле, то Хаус лечил бы больных не выходя из своего кабинета.-Раздача от: -Все раздачи сериала | Сэмпл | КиноПоиск | IMDb-Качество: WEB-DL 720p
Формат: MKV
Видео кодек: H.264
Аудио кодек: AC3
Видео: 1280x720 (16:9), ~4000 kbps, 23.976 fps, 0.187 bit/pixel
Аудио #1: RUS - 48000 Hz, 6 ch, 384 Kbps |LostFilm|
Аудио #2: RUS - 48000 Hz, 6 ch, 384 Kbps |NewStudio|
Аудио #3: UKR - 48000 Hz, 6 ch, 384 Kbps |UATEAM|
Аудио #4: ENG - 48000 Hz, 6 ch, 384 Kbps |Original|
Субтитры #1: RUS (полухардсаб)
Субтитры #2: ENG (полухардсаб)

MI

General
Unique ID                                : 172503656992084328088045398560138887583 (0x81C6FEF023ADB0A39E6D4EAC95C4819F)
Complete name                            : D:\House.M.D.S08.720p.WEB-DL.2xRus.Ukr.Eng.HDCLUB\House.M.D.S08E07.720p.WEB-DL.2xRus.Ukr.Eng.HDCLUB.mkv
Format                                   : Matroska
Format version                           : Version 2
File size                                : 1.77 GiB
Duration                                 : 43mn 54s
Overall bit rate                         : 5 784 Kbps
Movie name                               : House M.D. [Season 8] (2011) - Release for HDCLUB
Encoded date                             : UTC 2011-11-23 20:30:37
Writing application                      : mkvmerge v5.0.1 ('Es ist Sommer') built on Oct  9 2011 11:55:43
Writing library                          : libebml v1.2.2 + libmatroska v1.3.0
Video
ID                                       : 1
Format                                   : AVC
Format/Info                              : Advanced Video Codec
Format profile                           : High@L3.1
Format settings, CABAC                   : No
Format settings, ReFrames                : 2 frames
Codec ID                                 : V_MPEG4/ISO/AVC
Duration                                 : 43mn 54s
Bit rate                                 : 4 132 Kbps
Width                                    : 1 280 pixels
Height                                   : 720 pixels
Display aspect ratio                     : 16:9
Frame rate                               : 23.976 fps
Color space                              : YUV
Chroma subsampling                       : 4:2:0
Bit depth                                : 8 bits
Scan type                                : Progressive
Bits/(Pixel*Frame)                       : 0.187
Stream size                              : 1.27 GiB (71%)
Title                                    : House S08E07: Dead & Buried / Мертв и погребён - Release for HDCLUB
Language                                 : English
Default                                  : Yes
Forced                                   : No
Color primaries                          : BT.709-5, BT.1361, IEC 61966-2-4, SMPTE RP177
Transfer characteristics                 : BT.709-5, BT.1361
Matrix coefficients                      : BT.709-5, BT.1361, IEC 61966-2-4 709, SMPTE RP177
Audio #1
ID                                       : 2
Format                                   : AC-3
Format/Info                              : Audio Coding 3
Mode extension                           : CM (complete main)
Codec ID                                 : A_AC3
Duration                                 : 43mn 54s
Bit rate mode                            : Constant
Bit rate                                 : 384 Kbps
Channel(s)                               : 6 channels
Channel positions                        : Front: L C R, Side: L R, LFE
Sampling rate                            : 48.0 KHz
Bit depth                                : 16 bits
Compression mode                         : Lossy
Stream size                              : 121 MiB (7%)
Title                                    : LostFilm
Language                                 : Russian
Default                                  : Yes
Forced                                   : No
Audio #2
ID                                       : 3
Format                                   : AC-3
Format/Info                              : Audio Coding 3
Mode extension                           : CM (complete main)
Codec ID                                 : A_AC3
Duration                                 : 43mn 54s
Bit rate mode                            : Constant
Bit rate                                 : 384 Kbps
Channel(s)                               : 6 channels
Channel positions                        : Front: L C R, Side: L R, LFE
Sampling rate                            : 48.0 KHz
Bit depth                                : 16 bits
Compression mode                         : Lossy
Stream size                              : 121 MiB (7%)
Title                                    : NewStudio
Language                                 : Russian
Default                                  : No
Forced                                   : No
Audio #3
ID                                       : 4
Format                                   : AC-3
Format/Info                              : Audio Coding 3
Mode extension                           : CM (complete main)
Codec ID                                 : A_AC3
Duration                                 : 43mn 54s
Bit rate mode                            : Constant
Bit rate                                 : 384 Kbps
Channel(s)                               : 6 channels
Channel positions                        : Front: L C R, Side: L R, LFE
Sampling rate                            : 48.0 KHz
Bit depth                                : 16 bits
Compression mode                         : Lossy
Stream size                              : 121 MiB (7%)
Title                                    : UATEAM
Language                                 : Ukrainian
Default                                  : No
Forced                                   : No
Audio #4
ID                                       : 5
Format                                   : AC-3
Format/Info                              : Audio Coding 3
Mode extension                           : CM (complete main)
Codec ID                                 : A_AC3
Duration                                 : 43mn 54s
Bit rate mode                            : Constant
Bit rate                                 : 384 Kbps
Channel(s)                               : 6 channels
Channel positions                        : Front: L C R, Side: L R, LFE
Sampling rate                            : 48.0 KHz
Bit depth                                : 16 bits
Compression mode                         : Lossy
Stream size                              : 121 MiB (7%)
Language                                 : English
Default                                  : No
Forced                                   : No
Text #1
ID                                       : 6
Format                                   : UTF-8
Codec ID                                 : S_TEXT/UTF8
Codec ID/Info                            : UTF-8 Plain Text
Language                                 : Russian
Default                                  : No
Forced                                   : No
Text #2
ID                                       : 7
Format                                   : UTF-8
Codec ID                                 : S_TEXT/UTF8
Codec ID/Info                            : UTF-8 Plain Text
Language                                 : English
Default                                  : No
Forced                                   : No

Скриншоты:



Список эпизодов:

01. Twenty Vicodin / Двадцать викодинок
02. Transplant / Трансплант
03. Charity Case / Благотворительность
04. Risky Business / Рискованный бизнес
05. The Confession / Исповедь
06. Parents / Родители
07. Dead & Buried / Мертв и погребён
08. Perils of Paranoia / Параноики
09. Better Half / Лучшая половина
10. Runaways / Беглецы
11. Nobody's Fault / Никто не виноват
12. Chase / Чейз
13. Man of the House / Хозяин
14. Love is Blind / Любовь слепа
15. Blowing the Whistle / Измена
16. Gut Check / Проверка на вшивость
17. We Need the Eggs / У каждого свои тараканы
18. Body and Soul / Тело и душа
19. The C Word / Слово на букву Р
20. Post Mortem / После смерти
21. Holding On / Цепляясь за жизнь
22. Everybody Dies / Все умрут
Вы не можете начинать темы
Вы не можете отвечать на сообщения
Вы не можете редактировать свои сообщения
Вы не можете удалять свои сообщения
Вы не можете голосовать в опросах
Вы не можете прикреплять файлы к сообщениям
Вы можете скачивать файлы
!ВНИМАНИЕ!

Сайт не предоставляет электронные версии произведений, а занимается лишь коллекционированием и каталогизацией ссылок, присылаемых и публикуемых на форуме нашими читателями. Если вы являетесь правообладателем какого-либо представленного материала и не желаете, чтобы ссылка на него находилась в нашем каталоге, свяжитесь с нами, и мы незамедлительно удалим ее. Файлы для обмена на трекере предоставлены пользователями сайта, и администрация не несет ответственности за их содержание. Просьба не заливать файлы, защищенные авторскими правами, а также файлы нелегального содержания!

Искали программы, игры, дополнения, музыка mp3, аниме, аудио книги, журналы? Добро пожаловать на свободный торрент трекер Torrents, у нас можно скачать бесплатно, без смс и регистрации и прочих ограничений лучшие, отборные сборки программ, игр. Скачать торрентом не составит труда даже не опытному пользователю. Раздачи ежедневно обновляются, только лучшие и качественные раздачи, подробные описания и скриншоты. Огромная коллекция программ для работы со звуком, графикой, дизайном, а так же множество плагинов и инструментов к ним с подробной инструкцией и рекомендациями. Прошивки для навигаторов, карты. Разнообразные игры, для Windows, Linux. В коллекцие есть и старые игры любых жанров, Rpg, Action, Shooter, strategy Множество дополнений, модификаций, сценариев для популярных игр в жанре экш, рпг, гонки, стратегии, логические игры. Множество аддонов и сценариев для Microsoft Flight Simulator Большая коллекция книг, учебников. Если нет возможности купить печатное издание - смело скачивайте цифровую версию книги или, быть может, журнала. Не любите читать - можно загрузить бесплатно аудикнигу. Для веб дизайнеров и программистов так же найдется множество специализированного софта, таких как: редакторы с подсветкой, среды программирования, компоненты, системы управления базами данных, разнообразные скрипты и шаблоны. Не так давно у нас появился материал для автолюбителей и владельцев мото - оригинальные и неоригинальные каталоги запчастей, книги и журналы по ремонту и обслуживанию, видеоуроки, статьи по чип тюнингу, прошивкам. Процедура получения контента элементарная, достаточно просто скачать торрент файл и добавить его в загрузку в вашем торрент клиенте. Если у вас нет специального торрент клиента, вы можете его скачать у нас.