ivy gets facefucked | Alien Shooter 1.2 | Crunchtime Corporations

Александр Невский (Сергей Эйзенштейн, Дмитрий Васильев) [1938, историческая драма, BDRip-AVC] 

Цитировать
Александр Невский
Студия: Мосфильм
Жанр: историческая драма
Год выпуска: 1938
Продолжительность: 01:47:44
Субтитры: русские, английские
Режиссёр: Сергей Эйзенштейн, Дмитрий Васильев
В ролях: Николай Черкасов, Андрей Абрикосов, Дмитрий Орлов, Николай Охлопков, Варвара Массалитинова, Владимир Ершов, Сергей Блинников, Иван Лагутин, Лев Фенин, Наум Рогожин, Василий Новиков, Вера Ивашова, Александра Данилова, Николай Арский
Описание: На западные рубежи Руси наступают войска Тевтонского Ордена. Они захватывают Псков, жгут дома и убивают местных жителей. Рыцари делят ещё не завоеванные русские земли, присваивая себе титулы князей и надеясь на поддержку Папы Римского. Новгородский люд на вече решает собирать дружину и звать на командование ей опытного полководца князя Александра Ярославича Невского. Двое богатырей - Гаврила Алексич и Василий Буслаев вступают в княжескую дружину. Войска сходятся к берегам замёрзшего Чудского озера..

Качество видео: BDRip-AVC
Формат видео: MKV
Видео: 736x536 at 24.000 fps, MPEG-4 AVC, ~2284 kbps
Аудио: 48 kHz, AC3, 2/0 (L,R) ch, ~224 kbps
Формат субтитров: softsub (SRT)

MediaInfo

avs [info]: 736x536p 1:1 @ 10000000/416667 fps (cfr)
x264 [info]: using SAR=1/1
x264 [info]: using cpu capabilities: MMX2 SSE2Fast SSSE3 Cache64
x264 [info]: profile High, level 4.1
x264 [info]: frame I:975 Avg QP:19.23 size: 46584
x264 [info]: frame P:31710 Avg QP:21.04 size: 22169
x264 [info]: frame B:122474 Avg QP:22.35 size: 9284
x264 [info]: consecutive B-frames: 1.3% 1.4% 5.5% 24.1% 15.2% 42.3% 3.6% 1.2% 1.9% 1.6% 1.3% 0.7%-Format : Matroska
Format version : Version 2
File size : 1.93 GiB
Duration : 1h 47mn
Overall bit rate : 2 559 Kbps
Movie name : Александр Невский (1938)
Encoded date : UTC 2017-07-23 09:37:38
Writing application : mkvmerge v3.4.0 ('Rapunzel') built on May 15 2010 09:38:20
Writing library : libebml v0.8.0 + libmatroska v0.9.0
Video
ID : 1
Format : AVC
Format/Info : Advanced Video Codec
Format profile : High@L4.1
Format settings, CABAC : Yes
Format settings, ReFrames : 11 frames
Codec ID : V_MPEG4/ISO/AVC
Duration : 1h 47mn
Bit rate : 2 284 Kbps
Width : 736 pixels
Height : 536 pixels
Display aspect ratio : 1.373
Frame rate mode : Constant
Frame rate : 24.000 fps
Color space : YUV
Chroma subsampling : 4:2:0
Bit depth : 8 bits
Scan type : Progressive
Bits/(Pixel*Frame) : 0.241
Stream size : 1.72 GiB (89%)
Title : MPEG-4 (AVC)
Writing library : x264 core 150 r2833 df79067
Encoding settings : cabac=1 / ref=11 / deblock=1:-2:-2 / analyse=0x3:0x133 / me=umh / subme=9 / psy=1 / psy_rd=1.10:0.00 / mixed_ref=1 / me_range=32 / chroma_me=1 / trellis=2 / 8x8dct=1 / cqm=0 / deadzone=21,11 / fast_pskip=1 / chroma_qp_offset=-2 / threads=3 / lookahead_threads=1 / sliced_threads=0 / nr=0 / decimate=1 / interlaced=0 / bluray_compat=0 / constrained_intra=0 / bframes=11 / b_pyramid=2 / b_adapt=2 / b_bias=0 / direct=1 / weightb=1 / open_gop=0 / weightp=2 / keyint=240 / keyint_min=24 / scenecut=40 / intra_refresh=0 / rc=crf / mbtree=0 / crf=19.2 / qcomp=0.60 / qpmin=0 / qpmax=69 / qpstep=4 / ip_ratio=1.40 / pb_ratio=1.30 / aq=1:0.80
Language : Russian
Default : No
Forced : No
Audio
ID : 2
Format : AC-3
Format/Info : Audio Coding 3
Mode extension : CM (complete main)
Format settings, Endianness : Big
Codec ID : A_AC3
Duration : 1h 47mn
Bit rate mode : Constant
Bit rate : 224 Kbps
Channel(s) : 2 channels
Channel positions : Front: L R
Sampling rate : 48.0 KHz
Bit depth : 16 bits
Compression mode : Lossy
Stream size : 173 MiB (9%)
Title : AC3 2.0 @ 224 kbps
Language : Russian
Default : No
Forced : No
Text #1
ID : 3
Format : UTF-8
Codec ID : S_TEXT/UTF8
Codec ID/Info : UTF-8 Plain Text
Title : Full
Language : Russian
Default : No
Forced : No
Text #2
ID : 4
Format : UTF-8
Codec ID : S_TEXT/UTF8
Codec ID/Info : UTF-8 Plain Text
Title : Full
Language : English
Default : No
Forced : No

Скриншоты

Вы не можете начинать темы
Вы не можете отвечать на сообщения
Вы не можете редактировать свои сообщения
Вы не можете удалять свои сообщения
Вы не можете голосовать в опросах
Вы не можете прикреплять файлы к сообщениям
Вы можете скачивать файлы
!ВНИМАНИЕ!

Сайт не предоставляет электронные версии произведений, а занимается лишь коллекционированием и каталогизацией ссылок, присылаемых и публикуемых на форуме нашими читателями. Если вы являетесь правообладателем какого-либо представленного материала и не желаете, чтобы ссылка на него находилась в нашем каталоге, свяжитесь с нами, и мы незамедлительно удалим ее. Файлы для обмена на трекере предоставлены пользователями сайта, и администрация не несет ответственности за их содержание. Просьба не заливать файлы, защищенные авторскими правами, а также файлы нелегального содержания!

Искали программы, игры, дополнения, музыка mp3, аниме, аудио книги, журналы? Добро пожаловать на свободный торрент трекер Torrents, у нас можно скачать бесплатно, без смс и регистрации и прочих ограничений лучшие, отборные сборки программ, игр. Скачать торрентом не составит труда даже не опытному пользователю. Раздачи ежедневно обновляются, только лучшие и качественные раздачи, подробные описания и скриншоты. Огромная коллекция программ для работы со звуком, графикой, дизайном, а так же множество плагинов и инструментов к ним с подробной инструкцией и рекомендациями. Прошивки для навигаторов, карты. Разнообразные игры, для Windows, Linux. В коллекцие есть и старые игры любых жанров, Rpg, Action, Shooter, strategy Множество дополнений, модификаций, сценариев для популярных игр в жанре экш, рпг, гонки, стратегии, логические игры. Множество аддонов и сценариев для Microsoft Flight Simulator Большая коллекция книг, учебников. Если нет возможности купить печатное издание - смело скачивайте цифровую версию книги или, быть может, журнала. Не любите читать - можно загрузить бесплатно аудикнигу. Для веб дизайнеров и программистов так же найдется множество специализированного софта, таких как: редакторы с подсветкой, среды программирования, компоненты, системы управления базами данных, разнообразные скрипты и шаблоны. Не так давно у нас появился материал для автолюбителей и владельцев мото - оригинальные и неоригинальные каталоги запчастей, книги и журналы по ремонту и обслуживанию, видеоуроки, статьи по чип тюнингу, прошивкам. Процедура получения контента элементарная, достаточно просто скачать торрент файл и добавить его в загрузку в вашем торрент клиенте. Если у вас нет специального торрент клиента, вы можете его скачать у нас.